Subcategories

Praia do Futuro (2014)

Posted By: NaVi7
Praia do Futuro (2014)

Praia do Futuro (2014)
DVDRip | AVI / XVID, 1025 Kbps | 640x264 | 1h 45mn | 878 MiB
Portuguese-German: MP3, 128 Kbps (2 ch) | Subtitles: Italian HC
Genre: Drama

Donato lavora come bagnino nella spiaggia di Praia do Futuro e con coraggio salva la vita di tutti i coloro che finiscono in pericolo tra le acque. Un giorno, Donato soccorre due turisti tedeschi in vacanza ma riesce a salvarne solo uno, Konrad. Aspettando che il corpo dell’amico di Konrad venga restituito dal mare, tra Donato e il tedesco nasce una profonda amicizia che si trasforma presto in amore, tanto da spingere il bagnino…

imdb - 6 wins & 5 nominations.

General
Complete name : Praia.do.Futuro.2014.iTALiAN.Subbed.DVDRiP.XViD.avi
Format : AVI
Format/Info : Audio Video Interleave
File size : 878 MiB
Duration : 1h 45mn
Overall bit rate mode : Variable
Overall bit rate : 1 167 Kbps
Writing application : MEncoder dev-SVN-r26940
Writing library : MPlayer

Video
ID : 0
Format : MPEG-4 Visual
Format profile : Advanced Simple@L5
Format settings, BVOP : 2
Format settings, QPel : No
Format settings, GMC : No warppoints
Format settings, Matrix : Default (H.263)
Codec ID : XVID
Codec ID/Hint : XviD
Duration : 1h 45mn
Bit rate : 1 025 Kbps
Width : 640 pixels
Height : 264 pixels
Display aspect ratio : 2.40:1
Frame rate : 60.000 fps
Color space : YUV
Chroma subsampling : 4:2:0
Bit depth : 8 bits
Scan type : Progressive
Compression mode : Lossy
Bits/(Pixel*Frame) : 0.101
Stream size : 771 MiB (88%)
Writing library : XviD 1.1.2 (UTC 2006-11-01)

Audio
ID : 1
Format : MPEG Audio
Format version : Version 1
Format profile : Layer 3
Mode : Joint stereo
Codec ID : 55
Codec ID/Hint : MP3
Duration : 1h 45mn
Bit rate mode : Variable
Bit rate : 128 Kbps
Channel(s) : 2 channels
Sampling rate : 48.0 KHz
Compression mode : Lossy
Stream size : 92.2 MiB (10%)
Alignment : Aligned on interleaves
Interleave, duration : 24 ms (1.44 video frame)
Interleave, preload duratio : 517 ms
Writing library : LAME3.99r
Encoding settings : -m j -V 4 -q 2 -lowpass 17 –abr 128


screenshots:

Praia do Futuro (2014)

Praia do Futuro (2014)

Praia do Futuro (2014)