Subcategories

Problem Child 2 (1991)

Posted By: Without
Problem Child 2 (1991)

Problem Child 2 (1991)
BDRip 1080p | MKV | 1920x1040 | AVC@8808 kb/s | English DTS@768 kb/s
2 channels | 1 h 30 min | 6.06 GB
Genre: Comedy, Family

Junior's back in his first adventure since his last! Junior and Ben move to Mortville which seems like the perfect town to live in. The Healys have a nice new house–and Junior get's a cool new room! And young women have formed a line at Ben's door in order to get a piece of him (romantically). Ben does feel he should get remarried so Junior can have a mom, so while Junior adjusts to his new school which includes a little girl who's as bratty as Junior and a teenage brain-dead ignoramous bully in Junior's sixth grade class, Ben finds some dates, which Junior sends running for the hills, in the meantime Junior pulls his infamous tricks on people: blowing up barbecues, taping the bully to the chalkboard, videotaping his babysitter and her boyfriend having sex and broadcasting it for the whole neighborhood to see, same old same old. Meanwhile, Ben meets the gorgeous school nurse (after the school's satellite dish get's pushed on his head) and they, well he, believes it's love at first …

IMDB - 3 nominations


General
Complete name : Problem.Child.2.1991.1080p.BluRay.x264.DTS-FGT\Problem.Child.2.1991.1080p.BluRay.x264.DTS-FGT.mkv
Format : Matroska
Format version : Version 4 / Version 2
File size : 6.06 GiB
Duration : 1 h 30 min
Overall bit rate : 9 574 kb/s
Movie name : Problem.Child.2.1991.1080p.BluRay.x264.DTS-FGT
Encoded date : UTC 2017-03-05 13:12:35
Writing application : mkvmerge v9.9.0 ('Pick Up') 64bit
Writing library : libebml v1.3.4 + libmatroska v1.4.5
Cover : Yes
Attachments : cover_land.jpg / small_cover.jpg / small_cover_land.jpg / cover.jpg

Video
ID : 1
Format : AVC
Format/Info : Advanced Video Codec
Format profile : High@L4.1
Format settings, CABAC : Yes
Format settings, ReFrames : 4 frames
Codec ID : V_MPEG4/ISO/AVC
Duration : 1 h 30 min
Bit rate : 8 808 kb/s
Width : 1 920 pixels
Height : 1 040 pixels
Display aspect ratio : 1.85:1
Frame rate mode : Constant
Frame rate : 23.976 (24000/1001) FPS
Color space : YUV
Chroma subsampling : 4:2:0
Bit depth : 8 bits
Scan type : Progressive
Bits/(Pixel*Frame) : 0.184
Stream size : 5.46 GiB (90%)
Writing library : x264 core 148 r2744 b97ae06
Encoding settings : cabac=1 / ref=4 / deblock=1:-1:-1 / analyse=0x3:0x113 / me=umh / subme=7 / psy=1 / psy_rd=1.00:0.00 / mixed_ref=1 / me_range=16 / chroma_me=1 / trellis=1 / 8x8dct=1 / cqm=0 / deadzone=21,11 / fast_pskip=0 / chroma_qp_offset=-2 / threads=12 / lookahead_threads=2 / sliced_threads=0 / nr=0 / decimate=1 / interlaced=0 / bluray_compat=0 / constrained_intra=0 / bframes=3 / b_pyramid=2 / b_adapt=1 / b_bias=0 / direct=3 / weightb=1 / open_gop=0 / weightp=2 / keyint=250 / keyint_min=23 / scenecut=40 / intra_refresh=0 / rc_lookahead=40 / rc=2pass / mbtree=1 / bitrate=8808 / ratetol=1.0 / qcomp=0.60 / qpmin=0 / qpmax=69 / qpstep=4 / cplxblur=20.0 / qblur=0.5 / ip_ratio=1.40 / aq=1:1.00
Default : Yes
Forced : No

Audio
ID : 2
Format : DTS
Format/Info : Digital Theater Systems
Mode : 16
Format settings, Endianness : Big
Codec ID : A_DTS
Duration : 1 h 30 min
Bit rate mode : Constant
Bit rate : 768 kb/s
Channel(s) : 2 channels
Channel positions : Front: L R
Sampling rate : 48.0 kHz
Frame rate : 93.750 FPS (512 spf)
Bit depth : 24 bits
Compression mode : Lossy
Stream size : 498 MiB (8%)
Language : English
Default : No
Forced : No


BDRip 1080p Screenshots

Problem Child 2 (1991)

Problem Child 2 (1991)

Problem Child 2 (1991)

Problem Child 2 (1991)


Come Visit My Blog (•‿•)