Punk Britannia at the BBC (2012)

Posted By: notbanned
Punk Britannia at the BBC (2012)

Punk Britannia at the BBC (2012)
HDTV | 1280x960 | .MKV/AVC @ 3103 Kbps | 1 h 29 min | 2.01 GiB
Audio: English AAC 130 kbps, 2 channels | Subs: English
Genre: Documentary

An archive celebration of studio performances from the British bands that broke through courtesy of punk between 1975 and 1982. Starting with Dr Feelgood and Eddie and the Hot Rods and culminating in Gang of Four, with performances from Top of the Pops, The Old Grey Whistle Test, Something Else and other shows by The Sex Pistols, The Clash, The Buzzcocks, The Damned, Joy Division, Siouxsie and the Banshees, XTC and many more.


General
Unique ID : 207534902147060588576750074406467479561 (0x9C21C4AC5CEA3C6DB5E87A3B451B2809)
Complete name : Punk.Britannia.at.the.BBC.720p.mkv
Format : Matroska
Format version : Version 4 / Version 2
File size : 2.01 GiB
Duration : 1 h 29 min
Overall bit rate : 3 235 kb/s

Video
ID : 1
Format : AVC
Format/Info : Advanced Video Codec
Format profile : High@L4.1
Format settings, CABAC : Yes
Format settings, ReFrames : 4 frames
Codec ID : V_MPEG4/ISO/AVC
Duration : 1 h 29 min
Bit rate : 3 103 kb/s
Width : 1 280 pixels
Height : 960 pixels
Display aspect ratio : 4:3
Frame rate mode : Constant
Frame rate : 25.000 FPS
Color space : YUV
Chroma subsampling : 4:2:0
Bit depth : 8 bits
Scan type : Progressive
Bits/(Pixel*Frame) : 0.101
Stream size : 1.93 GiB (96%)
Encoding settings : cabac=1 / ref=3 / deblock=1:0:0 / analyse=0x3:0x113 / me=umh / subme=9 / psy=1 / psy_rd=1.00:0.00 / mixed_ref=1 / me_range=24 / chroma_me=1 / trellis=1 / 8x8dct=1 / cqm=0 / deadzone=21,11 / fast_pskip=0 / chroma_qp_offset=-2 / threads=3 / lookahead_threads=1 / sliced_threads=0 / nr=0 / decimate=1 / interlaced=0 / bluray_compat=0 / constrained_intra=0 / bframes=6 / b_pyramid=2 / b_adapt=2 / b_bias=0 / direct=1 / weightb=1 / open_gop=0 / weightp=2 / keyint=250 / keyint_min=25 / scenecut=40 / intra_refresh=0 / rc_lookahead=40 / rc=crf / mbtree=1 / crf=23.0 / qcomp=0.60 / qpmin=0 / qpmax=69 / qpstep=4 / ip_ratio=1.40 / aq=1:1.00
Language : English
Default : Yes
Forced : No
Color range : Limited
Color primaries : BT.709
Transfer characteristics : BT.709
Matrix coefficients : BT.709

Audio
ID : 2
Format : AAC
Format/Info : Advanced Audio Codec
Format profile : LC
Codec ID : A_AAC
Duration : 1 h 29 min
Bit rate : 130 kb/s
Channel(s) : 2 channels
Channel positions : Front: L R
Sampling rate : 48.0 kHz
Frame rate : 46.875 FPS (1024 spf)
Compression mode : Lossy
Delay relative to video : 9 ms
Stream size : 82.5 MiB (4%)
Language : English
Default : Yes
Forced : No

Text
ID : 3
Format : UTF-8
Codec ID : S_TEXT/UTF8
Codec ID/Info : UTF-8 Plain Text
Duration : 1 h 28 min
Bit rate : 52 b/s
Count of elements : 1075
Stream size : 34.4 KiB (0%)
Language : English
Default : No
Forced : No


Screenshots:

Punk Britannia at the BBC (2012)

Punk Britannia at the BBC (2012)

Punk Britannia at the BBC (2012)

Punk Britannia at the BBC (2012)