Rip Tide (2017)

Posted By: Tavaz
1080p (FullHD) / WEB-DL IMDb
Rip Tide (2017)

Rip Tide (2017)
WEB-DL | MKV | 1904x1064 | English | H264 @ 5167 kbps | AC-3 @ 384 kbps | 1 h 27 min | 3.39 GiB
Subtitles: Dutch
Genre: Drama/Family

There comes a point in everyone’s life when you have to make a decision about the direction you’re going to take. For newly-18 American fashion model Cora (musician and Disney star Debby Ryan, Jessie, 16 Wishes), that time is now. She’s moved to an Australian coastal town to be with her favourite aunt, after a 'fashion faux pas’ back home.


RIP TIDE (2017) 1080p WEB-DL x264 DD5.1 RETAIL NL Subs.mkv (3.4 GB)




General
Unique ID : 72487056535292599147988020158052322619 (0x36887FD0905547B463EF6056DA6E4D3B)
Complete name : ./rip10bnbbbsaqwsde/RIP TIDE (2017) 1080p WEB-DL x264 DD5.1 RETAIL NL Subs/RIP TIDE (2017) 1080p WEB-DL x264 DD5.1 RETAIL NL Subs.mkv
Format : Matroska
Format version : Version 4 / Version 2
File size : 3.39 GiB
Duration : 1 h 27 min
Overall bit rate : 5 553 kb/s
Movie name : UDC4ALL PRODUCTIES
Encoded date : UTC 2018-01-16 19:44:59
Writing application : mkvmerge v19.0.0 ('Brave Captain') 64-bit
Writing library : libebml v1.3.5 + libmatroska v1.4.8

Video
ID : 1
Format : AVC
Format/Info : Advanced Video Codec
Format profile : High@L4
Format settings : CABAC / 4 Ref Frames
Format settings, CABAC : Yes
Format settings, RefFrames : 4 frames
Codec ID : V_MPEG4/ISO/AVC
Duration : 1 h 27 min
Bit rate : 5 167 kb/s
Width : 1 904 pixels
Height : 1 064 pixels
Display aspect ratio : 16:9
Frame rate mode : Constant
Frame rate : 23.976 (24000/1001) FPS
Color space : YUV
Chroma subsampling : 4:2:0
Bit depth : 8 bits
Scan type : Progressive
Bits/(Pixel*Frame) : 0.106
Stream size : 3.16 GiB (93%)
Language : English
Default : Yes
Forced : No
Color range : Limited
Color primaries : BT.709
Transfer characteristics : BT.709
Matrix coefficients : BT.709

Audio
ID : 2
Format : AC-3
Format/Info : Audio Coding 3
Format settings, Endianness : Big
Codec ID : A_AC3
Duration : 1 h 27 min
Bit rate mode : Constant
Bit rate : 384 kb/s
Channel(s) : 6 channels
Channel positions : Front: L C R, Side: L R, LFE
Sampling rate : 48.0 kHz
Frame rate : 31.250 FPS (1536 SPF)
Bit depth : 16 bits
Compression mode : Lossy
Delay relative to video : -42 ms
Stream size : 240 MiB (7%)
Language : English
Service kind : Complete Main
Default : Yes
Forced : No

Text
ID : 3
Format : UTF-8
Codec ID : S_TEXT/UTF8
Codec ID/Info : UTF-8 Plain Text
Duration : 1 h 26 min
Bit rate : 39 b/s
Count of elements : 856
Stream size : 25.1 KiB (0%)
Title : Nederlands UDC4ALL
Language : Dutch
Default : Yes
Forced : Yes





Rip Tide (2017)


Rip Tide (2017)


Rip Tide (2017)


Rip Tide (2017)


Rip Tide (2017)