Tags
Language
Tags

Raid on Rommel (1971)

Posted By: Tavaz
1080p (FullHD) / BDRip IMDb
Raid on Rommel (1971)

Raid on Rommel (1971)
BDRip | MKV | 1920x1080 | English | H264 @ 5760 kbps | AC-3 @ 192 kbps | 1 h 37 min | 4.07 GiB
Subtitles: English
Genre: War, Action

Captain Foster plans on raiding German-occupied Tobruk with hand- picked commandos, but a mixup leaves him with a medical unit led by a Quaker conscientious objector. Despite all odds they succeed with their mission. On the way they pick up and drug the mistress of an Italian general, blow up the entire fuel supply for the Afrika Korps, and swap philatelic gossip with Field Marshal Erwin Rommel.

655288c1b129a6c51cfed863650ef5b3.mkv (4.1 GB)



General
Unique ID : 128031960895072808610359671457098148451 (0x60520F091A3F9C7B22CD544EC176AA63)
Complete name : ./655288c1b129a6c51cfed863650ef5b3.mkv
Format : Matroska
Format version : Version 4 / Version 2
File size : 4.07 GiB
Duration : 1 h 37 min
Overall bit rate : 5 952 kb/s
Movie name : Raid.on.Rommel.1971.1080p.BluRay.x264-nikt0
Encoded date : UTC 2020-11-24 21:10:49 / UTC 2020-11-23T20:21:57Z
Writing application : mkvmerge v47.0.0 ('Black Flag') 64-bit
Writing library : libebml v1.3.10 + libmatroska v1.5.2 / Lavf57.7.2

Video
ID : 1
Format : AVC
Format/Info : Advanced Video Codec
Format profile : High@L4
Format settings : CABAC / 4 Ref Frames
Format settings, CABAC : Yes
Format settings, RefFrames : 4 frames
Codec ID : V_MPEG4/ISO/AVC
Duration : 1 h 37 min
Bit rate : 5 760 kb/s
Width : 1 920 pixels
Height : 1 080 pixels
Display aspect ratio : 16:9
Frame rate mode : Constant
Frame rate : 23.976 (24000/1001) FPS
Color space : YUV
Chroma subsampling : 4:2:0
Bit depth : 8 bits
Scan type : Progressive
Bits/(Pixel*Frame) : 0.116
Stream size : 3.86 GiB (95%)
Writing library : x264 core 155 r2901 7d0ff22
Encoding settings : cabac=1 / ref=4 / deblock=1:-3:-3 / analyse=0x3:0x133 / me=umh / subme=9 / psy=1 / psy_rd=1.10:0.25 / mixed_ref=1 / me_range=32 / chroma_me=1 / trellis=2 / 8x8dct=1 / cqm=0 / deadzone=6,6 / fast_pskip=1 / chroma_qp_offset=-4 / threads=34 / lookahead_threads=3 / sliced_threads=0 / nr=0 / decimate=1 / interlaced=0 / bluray_compat=0 / constrained_intra=0 / bframes=6 / b_pyramid=2 / b_adapt=2 / b_bias=0 / direct=3 / weightb=1 / open_gop=0 / weightp=2 / keyint=240 / keyint_min=24 / scenecut=40 / intra_refresh=0 / rc_lookahead=40 / rc=2pass / mbtree=1 / bitrate=5760 / ratetol=1.0 / qcomp=0.60 / qpmin=0 / qpmax=69 / qpstep=4 / cplxblur=20.0 / qblur=0.5 / vbv_maxrate=20000 / vbv_bufsize=25000 / nal_hrd=none / filler=0 / ip_ratio=1.40 / aq=1:1.00
Language : English
Default : Yes
Forced : No
Color range : Limited
Color primaries : BT.709
Transfer characteristics : BT.709
Matrix coefficients : BT.709
Statistics Tags Issue : mkvmerge v47.0.0 ('Black Flag') 64-bit 2020-11-24 21:10:49 / mkvmerge v47.0.0 ('Black Flag') 64-bit 2020-11-24 21:10:49 / UTC 2020-11-23T20:21:57Z
FromStats_BitRate : 5758549
FromStats_Duration : 01:37:59.290000000
FromStats_FrameCount : 140962
FromStats_StreamSize : 4232022928

Audio
ID : 2
Format : AC-3
Format/Info : Audio Coding 3
Format settings, Endianness : Big
Codec ID : A_AC3
Duration : 1 h 37 min
Bit rate mode : Constant
Bit rate : 192 kb/s
Channel(s) : 2 channels
Channel positions : Front: L R
Sampling rate : 48.0 kHz
Frame rate : 31.250 FPS (1536 SPF)
Bit depth : 16 bits
Compression mode : Lossy
Stream size : 135 MiB (3%)
Title : Stereo
Language : English
Service kind : Complete Main
Default : Yes
Forced : No
Statistics Tags Issue : mkvmerge v47.0.0 ('Black Flag') 64-bit 2020-11-24 21:10:49 / mkvmerge v47.0.0 ('Black Flag') 64-bit 2020-11-24 21:10:49 / UTC 2020-11-23T20:21:57Z
FromStats_BitRate : 192000
FromStats_Duration : 01:37:59.296000000
FromStats_FrameCount : 183728
FromStats_StreamSize : 141103104

Text
ID : 3
Format : UTF-8
Codec ID : S_TEXT/UTF8
Codec ID/Info : UTF-8 Plain Text
Language : English
Default : Yes
Forced : No
Statistics Tags Issue : mkvmerge v47.0.0 ('Black Flag') 64-bit 2020-11-24 21:10:49 / mkvmerge v47.0.0 ('Black Flag') 64-bit 2020-11-24 21:10:49 / UTC 2020-11-23T20:21:57Z
FromStats_BitRate : 32
FromStats_Duration : 01:31:25.388000000
FromStats_FrameCount : 482
FromStats_StreamSize : 22247

Menu
00:00:00.000 : :Chapter 1
00:05:28.537 : :Chapter 2
00:14:50.556 : :Chapter 3
00:18:58.763 : :Chapter 4
00:21:52.603 : :Chapter 5
00:26:17.743 : :Chapter 6
00:32:36.163 : :Chapter 7
00:37:24.451 : :Chapter 8
00:43:03.164 : :Chapter 9
00:49:17.663 : :Chapter 10
00:56:00.357 : :Chapter 11
01:07:00.892 : :Chapter 12
01:15:15.136 : :Chapter 13
01:19:34.270 : :Chapter 14
01:28:55.956 : :Chapter 15
01:33:33.274 : :Chapter 16





Raid on Rommel (1971)


Raid on Rommel (1971)


Raid on Rommel (1971)


Raid on Rommel (1971)


Raid on Rommel (1971)