Rain Man (1988)

Posted By: Tavaz
1080p (FullHD) / BDRip IMDb
Rain Man (1988)

Rain Man (1988)
BDRip | MKV | 1920x1036 | English | H265 @ 2753 kbps | AC-3 @ 448 kbps | 2 h 13 min | 3.01 GiB
Subtitles: English
Genre: Drama

Selfish yuppie Charlie Babbitt's father left a fortune to his savant brother Raymond and a pittance to Charlie; they travel cross-country.

8b4604f5158b45cfa7eecdcaca5236de.mkv (3.0 GB)



General
Unique ID : 190746863219883877841961340488847940180 (0x8F80827300D8218283E3CE8FE69F5A54)
Complete name : ./8b4604f5158b45cfa7eecdcaca5236de.mkv
Format : Matroska
Format version : Version 2
File size : 3.01 GiB
Duration : 2 h 13 min
Overall bit rate : 3 218 kb/s
Movie name : Rain Man 1988 BluRay 1080p DD5.1 H265-d3g
Encoded date : UTC 2017-10-25 13:30:08
Writing application : DVDFab 10.0.6.2
Writing library : libebml v1.3.4 + libmatroska v1.4.5

Video
ID : 1
Format : HEVC
Format/Info : High Efficiency Video Coding
Format profile : Main@L4@Main
Codec ID : V_MPEGH/ISO/HEVC
Duration : 2 h 13 min
Bit rate : 2 753 kb/s
Width : 1 920 pixels
Height : 1 036 pixels
Display aspect ratio : 1.85:1
Frame rate mode : Constant
Frame rate : 23.976 (24000/1001) FPS
Color space : YUV
Chroma subsampling : 4:2:0 (Type 1 / Type 0)
Bit depth : 8 bits
Bits/(Pixel*Frame) : 0.058
Stream size : 2.57 GiB (86%)
Default : Yes
Forced : No
Color range : Limited
Color primaries : BT.709
Transfer characteristics : BT.709
Matrix coefficients : BT.709

Audio
ID : 2
Format : AC-3
Format/Info : Audio Coding 3
Format settings, Endianness : Big
Codec ID : A_AC3
Duration : 2 h 13 min
Bit rate mode : Constant
Bit rate : 448 kb/s
Channel(s) : 6 channels
Channel positions : Front: L C R, Side: L R, LFE
Sampling rate : 48.0 kHz
Frame rate : 31.250 FPS (1536 SPF)
Bit depth : 16 bits
Compression mode : Lossy
Stream size : 429 MiB (14%)
Language : English
Service kind : Complete Main
Default : Yes
Forced : No

Text
ID : 3
Format : VobSub
Codec ID : S_VOBSUB
Codec ID/Info : Picture based subtitle format used on DVDs
Duration : 2 h 7 min
Bit rate : 15.8 kb/s
Count of elements : 2469
Stream size : 14.5 MiB (0%)
Language : English
Default : Yes
Forced : No

Menu
00:00:00.000 : en:Main Title/Car Delivery
00:02:56.000 : en:Fighting Off the Sharks
00:05:58.000 : en:"Let's Talk!"
00:08:24.000 : en:Charity to Most
00:12:30.000 : en:"I Got the Rosebushes"
00:15:01.000 : en:"Raymond Is Your Brother"
00:20:14.000 : en:Strictly Routine
00:25:39.000 : en:Back in Two Hours
00:28:40.000 : en:"Definitely Not My Room"
00:32:14.000 : en:Whose Money Is It?
00:37:37.000 : en:Pancake Tuesday
00:40:41.000 : en:246 Toothpicks
00:43:15.000 : en:"Qantas Never Crashed"
00:47:27.000 : en:Lots of Traffic
00:51:27.000 : en:Rained In
00:54:36.000 : en:"I'm an Excellent Driver"
00:57:25.000 : en:Walk, Don't Walk
00:57:46.000 : en:"He's Artistic?"
00:59:51.000 : en:"Four Minutes to Wapner"
01:03:37.000 : en:Who Is on First
01:08:59.000 : en:The Day Rain Man Left
01:11:43.000 : en:Dryer TV/Out of Business
01:19:30.000 : en:Cardsharp Savant
01:23:30.000 : en:Sparkly Iris
01:25:48.000 : en:Dancing for High Rollers
01:34:04.000 : en:The Substitute Date
01:36:38.000 : en:Driving Home
01:42:12.000 : en:Not the Money Anymore
01:47:31.000 : en:It Has to Stop
01:50:39.000 : en:Questions for Raymond
01:53:27.000 : en:On the Shiny Train
01:55:41.000 : en:End Credits





Rain Man (1988)


Rain Man (1988)


Rain Man (1988)


Rain Man (1988)


Rain Man (1988)