Tags
Language
Tags

Red Line 7000 (1965)

Posted By: king-ston
1080p (FullHD) / BDRip IMDb
Red Line 7000 (1965)

Red Line 7000 (1965)
BDRip | MKV | AVC, 9991 Kbps | 1920x1040 | 23.976 fps | 7.93 GB | Runtime: 110 Min
Audio : English FLAC 309 Kbps | 2 channels | 48 KHz | Subtitle : None
Genre : Action | Drama | Sport

The story of three racing drivers and three women, who constantly have to worry for the lives of their boyfriends. Jim Loomis and Mike Marsh drive for Pat Cassarian. Jim expects his fiancée Holly, but before she arrives, he dies in a race. Since she hasn't got the money to travel back, she stays. The young and very ambitious talent Ned Arp joins the team and immediately starts wooing Pat's sister Julie. Third in the team is womanizer Dan McCall, who brings with him his current girlfriend Gabrielle from Paris. So the basic theme of this soap is "Who with whom?".


Video
ID : 1
Format : AVC
Format/Info : Advanced Video Codec
Format profile : High@L4.1
Format settings, CABAC : Yes
Format settings, ReFrames : 4 frames
Codec ID : V_MPEG4/ISO/AVC
Duration : 1 h 50 min
Bit rate : 9 991 kb/s
Width : 1 920 pixels
Height : 1 040 pixels
Display aspect ratio : 1.85:1
Frame rate mode : Constant
Frame rate : 23.976 (24000/1001) FPS
Color space : YUV
Chroma subsampling : 4:2:0
Bit depth : 8 bits
Scan type : Progressive
Bits/(Pixel*Frame) : 0.209
Stream size : 7.70 GiB (97%)
Writing library : x264 core 152 r2851 ba24899
Encoding settings : cabac=1 / ref=4 / deblock=1:-3:-3 / analyse=0x3:0x113 / me=umh / subme=8 / psy=1 / psy_rd=1.00:0.25 / mixed_ref=1 / me_range=24 / chroma_me=1 / trellis=1 / 8x8dct=1 / cqm=0 / deadzone=21,11 / fast_pskip=1 / chroma_qp_offset=-4 / threads=30 / lookahead_threads=5 / sliced_threads=0 / nr=0 / decimate=1 / interlaced=0 / bluray_compat=0 / constrained_intra=0 / bframes=3 / b_pyramid=2 / b_adapt=1 / b_bias=0 / direct=3 / weightb=1 / open_gop=0 / weightp=2 / keyint=240 / keyint_min=24 / scenecut=40 / intra_refresh=0 / rc_lookahead=50 / rc=2pass / mbtree=1 / bitrate=9991 / ratetol=1.0 / qcomp=0.60 / qpmin=0 / qpmax=69 / qpstep=4 / cplxblur=20.0 / qblur=0.5 / ip_ratio=1.40 / aq=1:0.75
Default : Yes
Forced : No

Audio
ID : 2
Format : FLAC
Format/Info : Free Lossless Audio Codec
Codec ID : A_FLAC
Duration : 1 h 50 min
Bit rate mode : Variable
Bit rate : 309 kb/s
Channel(s) : 2 channels
Channel positions : Front: L R
Sampling rate : 48.0 kHz
Frame rate : 11.719 FPS (4096 spf)
Bit depth : 16 bits
Stream size : 244 MiB (3%)
Writing library : libFLAC 1.2.1 (UTC 2007-09-17)
Language : English
Default : Yes
Forced : No


Red Line 7000 (1965)

Red Line 7000 (1965)

Red Line 7000 (1965)

Red Line 7000 (1965)

Red Line 7000 (1965)