Tags
Language
Tags

Red, White and Zero (1967) [British Film Institute]

Posted By: RSU75
1080p (FullHD) / BDRip IMDb
Red, White and Zero (1967) [British Film Institute]

Red, White and Zero (1967) [British Film Institute]
BDRip | MKV | AVC, 1480x1080, ~ 3.8 Mbps | 1hr 38mn | 3.02 GB
English: AC3, 1 ch, 448 kbps; English (Commentary): AC3, 2 ch, 192 kbps
BDRip | MKV | AVC, 988x720, ~ 2.6 Mbps | 1hr 38mn | 2.08 MB
English: AC3, 1 ch, 256 kbps; English (Commentary): AC3, 2 ch, 192 kbps
Subtitles: English
Genre: Drama



Director: Lindsay Anderson
Writers: Shelagh Delaney (screenplay), Shelagh Delaney (story)
Stars: Patricia Healey, Arthur Lowe, John Sharp

Film Distributor: BFI (British Film Institute)

An impassive young girl is taken from her suicidal London life, back to her home in North England, on a bizarre bus trip. Seen through the poetic eye of the camera, this is a commentary of doomed British morbidity.

Never before released in the UK, Woodfall Films' 1967 portmanteau feature is a major rediscovery. Composed of three shorts – Ride of the Valkyrie, The White Bus and Red and Blue – from three of Britain’s most celebrated directors - Lindsay Anderson, Peter Brook and Tony Richardson – Red, White and Zero embodies the creativity and audacity at the heart of swinging 60s cinema.

Comic legend Zero Mostel stars as an opera singer (in full costume) navigating the London transport network as he attempts to reach Covent Garden in Ride of the Valkyrie.

Scripted by Shelagh Delaney, The White Bus blends realism, drama and poetry as a despondent young woman travels home to the North of England.

And Vanessa Redgrave stars in Tony Richardson’s romantic reverie and musical featurette Red and Blue.

BFI Flipside is dedicated to rediscovering the margins of British film, reclaiming a space for forgotten movies and filmmakers who would otherwise be in danger of disappearing from our screens forever. It is a home for UK cinematic oddities, offering everything from exploitation documentaries to B-movies, countercultural curios and obscure classics, If it's weird, British and forgotten, then it's Flipside.

Extras:
- Audio commentary by Adrian Martin




General
Unique ID : 202652926749230159658128201495530099007 (0x987588B3DB7C0D068787435B2B26D13F)
Complete name : F:\RedWhiteAndZero.67.BFI.1p\RedWhiteAndZero.67.BFI.1p.mkv
Format : Matroska
Format version : Version 4 / Version 2
File size : 3.02 GiB
Duration : 1 h 38 min
Overall bit rate : 4 413 kb/s
Movie name : Release RSU75
Encoded date : UTC 2019-12-06 04:15:48
Writing application : mkvmerge v6.6.0 ('The Edge Of The In Between') built on Dec 1 2013 17:55:00
Writing library : libebml v1.3.0 + libmatroska v1.4.1

Video
ID : 1
Format : AVC
Format/Info : Advanced Video Codec
Format profile : High@L4.1
Format settings : CABAC / 4 Ref Frames
Format settings, CABAC : Yes
Format settings, ReFrames : 4 frames
Codec ID : V_MPEG4/ISO/AVC
Duration : 1 h 38 min
Bit rate : 3 800 kb/s
Width : 1 480 pixels
Height : 1 080 pixels
Display aspect ratio : 1.370
Frame rate mode : Constant
Frame rate : 23.976 (23976/1000) FPS
Color space : YUV
Chroma subsampling : 4:2:0
Bit depth : 8 bits
Scan type : Progressive
Bits/(Pixel*Frame) : 0.099
Stream size : 2.52 GiB (84%)
Writing library : x264 core 148 r2643 5c65704
Encoding settings : cabac=1 / ref=4 / deblock=1:0:0 / analyse=0x3:0x113 / me=umh / subme=8 / psy=1 / psy_rd=1.00:0.00 / mixed_ref=1 / me_range=24 / chroma_me=1 / trellis=1 / 8x8dct=1 / cqm=0 / deadzone=21,11 / fast_pskip=1 / chroma_qp_offset=-2 / threads=3 / lookahead_threads=1 / sliced_threads=0 / nr=0 / decimate=1 / interlaced=0 / bluray_compat=0 / constrained_intra=0 / bframes=3 / b_pyramid=0 / b_adapt=2 / b_bias=0 / direct=3 / weightb=1 / open_gop=0 / weightp=2 / keyint=250 / keyint_min=25 / scenecut=40 / intra_refresh=0 / rc_lookahead=40 / rc=abr / mbtree=1 / bitrate=3800 / ratetol=1.0 / qcomp=0.60 / qpmin=10 / qpmax=51 / qpstep=4 / ip_ratio=1.41 / aq=1:1.00
Language : English
Default : Yes
Forced : No

Audio #1
ID : 2
Format : AC-3
Format/Info : Audio Coding 3
Commercial name : Dolby Digital
Codec ID : A_AC3
Duration : 1 h 38 min
Bit rate mode : Constant
Bit rate : 448 kb/s
Channel(s) : 1 channel
Channel layout : C
Sampling rate : 44.1 kHz
Frame rate : 28.711 FPS (1536 SPF)
Bit depth : 16 bits
Compression mode : Lossy
Stream size : 314 MiB (10%)
Language : English
Service kind : Complete Main
Default : Yes
Forced : No

Audio #2
ID : 3
Format : AC-3
Format/Info : Audio Coding 3
Commercial name : Dolby Digital
Codec ID : A_AC3
Duration : 1 h 38 min
Bit rate mode : Constant
Bit rate : 192 kb/s
Channel(s) : 2 channels
Channel layout : L R
Sampling rate : 48.0 kHz
Frame rate : 31.250 FPS (1536 SPF)
Bit depth : 16 bits
Compression mode : Lossy
Stream size : 135 MiB (4%)
Language : English
Service kind : Complete Main
Default : No
Forced : No

Text
ID : 4
Format : PGS
Muxing mode : zlib
Codec ID : S_HDMV/PGS
Codec ID/Info : Picture based subtitle format used on BDs/HD-DVDs
Language : English
Default : Yes
Forced : No

Menu
00:00:00.000 : en:Chapter 01
00:14:59.291 : en:Chapter 02
00:23:14.625 : en:Chapter 03
00:30:28.708 : en:Chapter 04
00:37:13.958 : en:Chapter 05
00:46:36.708 : en:Chapter 06
00:53:05.083 : en:Chapter 07
01:02:09.583 : en:Chapter 08
01:09:43.791 : en:Chapter 09
01:14:25.000 : en:Chapter 10
01:19:21.250 : en:Chapter 11
01:25:57.833 : en:Chapter 12






General
Unique ID : 244389718581746170433732275805336182593 (0xB7DBBF6A089ED8DCB5D66B5E3F111F41)
Complete name : F:\RedWhiteAndZero.67.BFI.7p\RedWhiteAndZero.67.BFI.7p.mkv
Format : Matroska
Format version : Version 4 / Version 2
File size : 2.08 GiB
Duration : 1 h 38 min
Overall bit rate : 3 035 kb/s
Movie name : Release RSU75
Encoded date : UTC 2019-12-06 03:47:59
Writing application : mkvmerge v6.6.0 ('The Edge Of The In Between') built on Dec 1 2013 17:55:00
Writing library : libebml v1.3.0 + libmatroska v1.4.1

Video
ID : 1
Format : AVC
Format/Info : Advanced Video Codec
Format profile : High@L4.1
Format settings : CABAC / 4 Ref Frames
Format settings, CABAC : Yes
Format settings, ReFrames : 4 frames
Codec ID : V_MPEG4/ISO/AVC
Duration : 1 h 38 min
Bit rate : 2 600 kb/s
Width : 988 pixels
Height : 720 pixels
Display aspect ratio : 1.371
Original display aspect rat : 1.370
Frame rate mode : Constant
Frame rate : 23.976 (23976/1000) FPS
Color space : YUV
Chroma subsampling : 4:2:0
Bit depth : 8 bits
Scan type : Progressive
Bits/(Pixel*Frame) : 0.152
Stream size : 1.73 GiB (83%)
Writing library : x264 core 148 r2643 5c65704
Encoding settings : cabac=1 / ref=4 / deblock=1:0:0 / analyse=0x3:0x113 / me=umh / subme=8 / psy=1 / psy_rd=1.00:0.00 / mixed_ref=1 / me_range=24 / chroma_me=1 / trellis=1 / 8x8dct=1 / cqm=0 / deadzone=21,11 / fast_pskip=1 / chroma_qp_offset=-2 / threads=3 / lookahead_threads=1 / sliced_threads=0 / nr=0 / decimate=1 / interlaced=0 / bluray_compat=0 / constrained_intra=0 / bframes=3 / b_pyramid=0 / b_adapt=2 / b_bias=0 / direct=3 / weightb=1 / open_gop=0 / weightp=2 / keyint=250 / keyint_min=25 / scenecut=40 / intra_refresh=0 / rc_lookahead=40 / rc=abr / mbtree=1 / bitrate=2600 / ratetol=1.0 / qcomp=0.60 / qpmin=10 / qpmax=51 / qpstep=4 / ip_ratio=1.41 / aq=1:1.00
Language : English
Default : Yes
Forced : No

Audio #1
ID : 2
Format : AC-3
Format/Info : Audio Coding 3
Commercial name : Dolby Digital
Codec ID : A_AC3
Duration : 1 h 38 min
Bit rate mode : Constant
Bit rate : 256 kb/s
Channel(s) : 1 channel
Channel layout : C
Sampling rate : 44.1 kHz
Frame rate : 28.711 FPS (1536 SPF)
Bit depth : 16 bits
Compression mode : Lossy
Stream size : 179 MiB (8%)
Language : English
Service kind : Complete Main
Default : Yes
Forced : No

Audio #2
ID : 3
Format : AC-3
Format/Info : Audio Coding 3
Commercial name : Dolby Digital
Codec ID : A_AC3
Duration : 1 h 38 min
Bit rate mode : Constant
Bit rate : 192 kb/s
Channel(s) : 2 channels
Channel layout : L R
Sampling rate : 48.0 kHz
Frame rate : 31.250 FPS (1536 SPF)
Bit depth : 16 bits
Compression mode : Lossy
Stream size : 135 MiB (6%)
Language : English
Service kind : Complete Main
Default : No
Forced : No

Text
ID : 4
Format : PGS
Muxing mode : zlib
Codec ID : S_HDMV/PGS
Codec ID/Info : Picture based subtitle format used on BDs/HD-DVDs
Language : English
Default : Yes
Forced : No

Menu
00:00:00.000 : en:Chapter 01
00:14:59.291 : en:Chapter 02
00:23:14.625 : en:Chapter 03
00:30:28.708 : en:Chapter 04
00:37:13.958 : en:Chapter 05
00:46:36.708 : en:Chapter 06
00:53:05.083 : en:Chapter 07
01:02:09.583 : en:Chapter 08
01:09:43.791 : en:Chapter 09
01:14:25.000 : en:Chapter 10
01:19:21.250 : en:Chapter 11
01:25:57.833 : en:Chapter 12




Screenshots 1080p (click to enlarge to original size):

Red, White and Zero (1967) [British Film Institute]

Red, White and Zero (1967) [British Film Institute]

Red, White and Zero (1967) [British Film Institute]



Screenshots 720p (click to enlarge to original size):

Red, White and Zero (1967) [British Film Institute]




–––––––––––––––––––––––––––––––––––––––-