Akahige / Red Beard (1965)

Posted By: Without
1080p (FullHD) / BDRip IMDb
Akahige / Red Beard (1965)

Akahige / Red Beard (1965)
BRRip | AVI | 3 h 5 min | 2.33 GB | 720x284 | XviD@1591 kb/s | 日本語 MP3@192 kb/s, 2 ch
BDRip 720p | MKV | 3 h 5 min | 8.75 GB | 1280x504 | AVC@5235 kb/s | 日本語 DTS@1509 kb/s, 2 ch
BDRip 1080p | MKV | 3 h 5 min | 16.4 GB | 1920x760 | AVC@11.1 Mb/s | 日本語 DTS@1509 kb/s, 2 ch
Subs: English, Français
Genre: Drama

In a charity hospital, a hard-bitten but honorable older doctor, Dr. Niide, takes a young intern under his guidance through the course of a number of difficult cases.

IMDB - Nominated for 1 Golden Globe. Another 10 wins & 1 nomination.


General
Red.Beard.1965.JAPANESE.BRRip.XviD.MP3-VXT.avi
Format : AVI
Format/Info : Audio Video Interleave
Format profile : OpenDML
File size : 2.33 GB
Duration : 3 h 5 min
Overall bit rate : 1795 kb/s
Writing application : Lavf58.20.100

Video
ID : 0
Format : MPEG-4 Visual
Format profile : Simple@L5
Format settings, BVOP : No
Format settings, QPel : No
Format settings, GMC : No warppoints
Format settings, Matrix : Default (H.263)
Codec ID : XVID
Codec ID/Hint : XviD
Duration : 3 h 5 min
Bit rate : 1591 kb/s
Width : 720 pixels
Height : 284 pixels
Display aspect ratio : 2.540
Original display aspect ratio : 2.535
Frame rate : 23.976 (24000/1001) FPS
Color space : YUV
Chroma subsampling : 4:2:0
Bit depth : 8 bits
Scan type : Progressive
Compression mode : Lossy
Bits/(Pixel*Frame) : 0.324
Stream size : 2.06 GB (89%)
Writing library : Lavc58.35.100

Audio
ID : 1
Format : MPEG Audio
Format version : Version 1
Format profile : Layer 3
Mode : Joint stereo
Mode extension : MS Stereo
Codec ID : 55
Codec ID/Hint : MP3
Duration : 3 h 5 min
Bit rate mode : Constant
Bit rate : 192 kb/s
Channel(s) : 2 channels
Sampling rate : 48.0 kHz
Compression mode : Lossy
Stream size : 255 MB (11%)
Alignment : Aligned on interleaves
Interleave, duration : 24 ms (0.58 video frame)
Interleave, preload duration : 24 ms
Writing library : LAME3.99.5


General
red.beard.1965.720p.bluray.x264-usury.mkv
Format : Matroska
Format version : Version 4 / Version 2
File size : 8.75 GB
Duration : 3 h 5 min
Overall bit rate : 6747 kb/s
Encoded date : UTC 2019-09-14 22:00:25
Writing application : mkvmerge v8.3.0 ('Over the Horizon') 64bit
Writing library : libebml v1.3.1 + libmatroska v1.4.2

Video
ID : 1
Format : AVC
Format/Info : Advanced Video Codec
Format profile : High@L4.1
Format settings, CABAC : Yes
Format settings, ReFrames : 5 frames
Codec ID : V_MPEG4/ISO/AVC
Duration : 3 h 5 min
Bit rate : 5235 kb/s
Width : 1280 pixels
Height : 504 pixels
Display aspect ratio : 2.540
Frame rate mode : Constant
Frame rate : 23.976 (24000/1001) FPS
Color space : YUV
Chroma subsampling : 4:2:0
Bit depth : 8 bits
Scan type : Progressive
Bits/(Pixel*Frame) : 0.338
Stream size : 6.79 GB (78%)
Writing library : x264 core 157 r2969 d4099dd
Encoding settings : cabac=1 / ref=5 / deblock=1:-3:-3 / analyse=0x3:0x133 / me=umh / subme=9 / psy=1 / psy_rd=1.00:0.00 / mixed_ref=1 / me_range=16 / chroma_me=1 / trellis=2 / 8x8dct=1 / cqm=0 / deadzone=21,11 / fast_pskip=0 / chroma_qp_offset=-2 / threads=16 / lookahead_threads=1 / sliced_threads=0 / nr=0 / decimate=1 / interlaced=0 / bluray_compat=0 / constrained_intra=0 / bframes=3 / b_pyramid=2 / b_adapt=1 / b_bias=0 / direct=3 / weightb=1 / open_gop=0 / weightp=2 / keyint=240 / keyint_min=24 / scenecut=40 / intra_refresh=0 / rc_lookahead=50 / rc=2pass / mbtree=1 / bitrate=5235 / ratetol=1.0 / qcomp=0.60 / qpmin=0 / qpmax=69 / qpstep=4 / cplxblur=20.0 / qblur=0.5 / ip_ratio=1.40 / aq=1:1.00
Language : English
Default : Yes
Forced : No

Audio
ID : 2
Format : DTS
Format/Info : Digital Theater Systems
Mode : 16
Format settings, Endianness : Big
Codec ID : A_DTS
Duration : 3 h 5 min
Bit rate mode : Constant
Bit rate : 1509 kb/s
Channel(s) : 2 channels
Channel positions : Front: L R
Sampling rate : 48.0 kHz
Frame rate : 93.750 FPS (512 spf)
Bit depth : 24 bits
Compression mode : Lossy
Stream size : 1.96 GB (22%)
Language : Japanese
Default : Yes
Forced : No

Text #1
ID : 3
Format : UTF-8
Codec ID : S_TEXT/UTF8
Codec ID/Info : UTF-8 Plain Text
Duration : 3 h 4 min
Bit rate : 30 b/s
Count of elements : 1406
Stream size : 41.3 KiB (0%)
Title : English
Language : English
Default : Yes
Forced : Yes

Text #2
ID : 4
Format : UTF-8
Codec ID : S_TEXT/UTF8
Codec ID/Info : UTF-8 Plain Text
Duration : 3 h 4 min
Bit rate : 35 b/s
Count of elements : 1784
Stream size : 47.5 KiB (0%)
Title : French
Language : French
Default : No
Forced : No

Menu
00:00:00.000 : en:00:00:00.000
00:15:25.341 : en:00:15:25.341
00:34:55.844 : en:00:34:55.844
00:47:14.790 : en:00:47:14.790
01:02:41.299 : en:01:02:41.299
01:11:14.228 : en:01:11:14.228
01:32:34.507 : en:01:32:34.507
01:50:42.761 : en:01:50:42.761
02:04:36.386 : en:02:04:36.386
02:24:44.009 : en:02:24:44.009
02:34:50.698 : en:02:34:50.698
02:50:33.557 : en:02:50:33.557


General
red.beard.1965.1080p.bluray.x264-usury.mkv
Format : Matroska
Format version : Version 4 / Version 2
File size : 16.4 GB
Duration : 3 h 5 min
Overall bit rate : 12.6 Mb/s
Encoded date : UTC 2019-09-14 22:10:57
Writing application : mkvmerge v8.3.0 ('Over the Horizon') 64bit
Writing library : libebml v1.3.1 + libmatroska v1.4.2

Video
ID : 1
Format : AVC
Format/Info : Advanced Video Codec
Format profile : High@L4.1
Format settings, CABAC : Yes
Format settings, ReFrames : 5 frames
Codec ID : V_MPEG4/ISO/AVC
Duration : 3 h 5 min
Bit rate : 11.1 Mb/s
Width : 1920 pixels
Height : 760 pixels
Display aspect ratio : 2.526
Frame rate mode : Constant
Frame rate : 23.976 (24000/1001) FPS
Color space : YUV
Chroma subsampling : 4:2:0
Bit depth : 8 bits
Scan type : Progressive
Bits/(Pixel*Frame) : 0.318
Stream size : 14.4 GB (88%)
Writing library : x264 core 157 r2969 d4099dd
Encoding settings : cabac=1 / ref=5 / deblock=1:-3:-3 / analyse=0x3:0x133 / me=umh / subme=9 / psy=1 / psy_rd=1.00:0.00 / mixed_ref=1 / me_range=16 / chroma_me=1 / trellis=2 / 8x8dct=1 / cqm=0 / deadzone=21,11 / fast_pskip=0 / chroma_qp_offset=-2 / threads=18 / lookahead_threads=1 / sliced_threads=0 / nr=0 / decimate=1 / interlaced=0 / bluray_compat=0 / constrained_intra=0 / bframes=3 / b_pyramid=2 / b_adapt=1 / b_bias=0 / direct=3 / weightb=1 / open_gop=0 / weightp=2 / keyint=240 / keyint_min=24 / scenecut=40 / intra_refresh=0 / rc_lookahead=50 / rc=2pass / mbtree=1 / bitrate=11135 / ratetol=1.0 / qcomp=0.60 / qpmin=0 / qpmax=69 / qpstep=4 / cplxblur=20.0 / qblur=0.5 / ip_ratio=1.40 / aq=1:1.00
Language : English
Default : Yes
Forced : No

Audio
ID : 2
Format : DTS
Format/Info : Digital Theater Systems
Mode : 16
Format settings, Endianness : Big
Codec ID : A_DTS
Duration : 3 h 5 min
Bit rate mode : Constant
Bit rate : 1509 kb/s
Channel(s) : 2 channels
Channel positions : Front: L R
Sampling rate : 48.0 kHz
Frame rate : 93.750 FPS (512 spf)
Bit depth : 24 bits
Compression mode : Lossy
Stream size : 1.96 GB (12%)
Language : Japanese
Default : Yes
Forced : No

Text #1
ID : 3
Format : UTF-8
Codec ID : S_TEXT/UTF8
Codec ID/Info : UTF-8 Plain Text
Duration : 3 h 4 min
Bit rate : 30 b/s
Count of elements : 1406
Stream size : 41.3 KiB (0%)
Title : English
Language : English
Default : Yes
Forced : Yes

Text #2
ID : 4
Format : UTF-8
Codec ID : S_TEXT/UTF8
Codec ID/Info : UTF-8 Plain Text
Duration : 3 h 4 min
Bit rate : 35 b/s
Count of elements : 1784
Stream size : 47.5 KiB (0%)
Title : French
Language : French
Default : No
Forced : No

Menu
00:00:00.000 : en:00:00:00.000
00:15:25.341 : en:00:15:25.341
00:34:55.844 : en:00:34:55.844
00:47:14.790 : en:00:47:14.790
01:02:41.299 : en:01:02:41.299
01:11:14.228 : en:01:11:14.228
01:32:34.507 : en:01:32:34.507
01:50:42.761 : en:01:50:42.761
02:04:36.386 : en:02:04:36.386
02:24:44.009 : en:02:24:44.009
02:34:50.698 : en:02:34:50.698
02:50:33.557 : en:02:50:33.557



BRRip Screenshots

Akahige / Red Beard (1965)

Akahige / Red Beard (1965)

Akahige / Red Beard (1965)


BDRip 720p Screenshots

Akahige / Red Beard (1965)

Akahige / Red Beard (1965)

Akahige / Red Beard (1965)


BDRip 1080p Screenshots

Akahige / Red Beard (1965)

Akahige / Red Beard (1965)

Akahige / Red Beard (1965)


Come Visit My Blog (•‿•)