Return to the Blue Lagoon (1991)

Posted By: Without
Return to the Blue Lagoon (1991)

Return to the Blue Lagoon (1991)
WEB-DL 1080p | MKV | 1920x1080 | AVC@14.4 Mb/s | English AC3@224 kb/s
Subs: English | 2 channels | 1 h 41 min | 10.4 GB
Genre: Adventure, Drama, Romance

In this sequel to The Blue Lagoon (1980), two children are stranded on a beautiful island in the South Pacific. With no adults to guide them, the two make a simple life together and eventually become suntanned teenagers in love.

IMDB - 6 nominations.


General
Return.to.the.Blue.Lagoon.1991.1080p.AMZN.WEB-DL.DD\Return.to.the.Blue.Lagoon.1991.1080p.AMZN.WEB-DL.DD+2.0.x264-SiGMA.mkv
Format : Matroska
Format version : Version 4 / Version 2
File size : 10.4 GiB
Duration : 1 h 41 min
Overall bit rate mode : Variable
Overall bit rate : 14.6 Mb/s
Encoded date : UTC 2017-10-01 07:15:24
Writing application : mkvmerge v15.0.0 ('Duel with the Devil') 64-bit
Writing library : libebml v1.3.5 + libmatroska v1.4.5

Video
ID : 1
Format : AVC
Format/Info : Advanced Video Codec
Format profile : High@L4
Format settings, CABAC : Yes
Format settings, ReFrames : 4 frames
Codec ID : V_MPEG4/ISO/AVC
Duration : 1 h 41 min
Bit rate mode : Variable
Bit rate : 14.4 Mb/s
Maximum bit rate : 15.0 Mb/s
Width : 1 920 pixels
Height : 1 080 pixels
Display aspect ratio : 16:9
Frame rate mode : Constant
Frame rate : 23.976 (24000/1001) FPS
Color space : YUV
Chroma subsampling : 4:2:0
Bit depth : 8 bits
Scan type : Progressive
Bits/(Pixel*Frame) : 0.290
Stream size : 10.3 GiB (98%)
Writing library : x264 core 148 r2623 d5b2374
Encoding settings : cabac=1 / ref=4 / deblock=1:-1:-1 / analyse=0x3:0x133 / me=umh / subme=9 / psy=1 / psy_rd=1.00:0.15 / mixed_ref=1 / me_range=24 / chroma_me=1 / trellis=2 / 8x8dct=1 / cqm=0 / deadzone=21,11 / fast_pskip=1 / chroma_qp_offset=-3 / threads=34 / lookahead_threads=5 / sliced_threads=0 / nr=150 / decimate=1 / interlaced=0 / bluray_compat=0 / constrained_intra=0 / bframes=8 / b_pyramid=2 / b_adapt=2 / b_bias=0 / direct=3 / weightb=1 / open_gop=0 / weightp=2 / keyint=120 / keyint_min=61 / scenecut=0 / intra_refresh=0 / rc_lookahead=120 / rc=crf / mbtree=1 / crf=18.0 / qcomp=0.60 / qpmin=0 / qpmax=69 / qpstep=4 / vbv_maxrate=15000 / vbv_bufsize=31250 / crf_max=0.0 / nal_hrd=vbr / filler=0 / ip_ratio=1.40 / aq=3:1.00
Default : Yes
Forced : No
Color range : Limited
Color primaries : BT.709
Transfer characteristics : BT.709
Matrix coefficients : BT.709

Audio
ID : 2
Format : E-AC-3
Format/Info : Enhanced Audio Coding 3
Format settings, Endianness : Big
Codec ID : A_EAC3
Duration : 1 h 41 min
Bit rate mode : Constant
Bit rate : 224 kb/s
Channel(s) : 2 channels
Channel positions : Front: L R
Sampling rate : 48.0 kHz
Frame rate : 187.500 FPS (256 spf)
Compression mode : Lossy
Stream size : 163 MiB (2%)
Language : English
Default : Yes
Forced : No

Text
ID : 3
Format : UTF-8
Codec ID : S_TEXT/UTF8
Codec ID/Info : UTF-8 Plain Text
Duration : 1 h 38 min
Bit rate : 37 b/s
Count of elements : 847
Stream size : 27.4 KiB (0%)
Language : English
Default : No
Forced : No

Menu
00:00:00.000 : en:Studio Logos
00:00:14.000 : en:A boat sails in the ocean, Opening Credits
00:01:47.000 : en:Sailors spot the boat and rescue an baby
00:04:48.000 : en:Penfield tells the First Captain about the crew's illness; Ship
00:06:27.000 : en:The First Captain tells Sarah to get off boat with the children; Ship
00:08:46.000 : en:Sarah prevents Kearney from harming the children; Boat
00:12:27.000 : en:Sarah and the children find an island; Boat
00:15:00.000 : en:Sarah makes shelter for her and the children
00:16:39.000 : en:Sarah finds fresh water and fruit
00:18:32.000 : en:Sarah and the children face a heavy storm
00:19:26.000 : en:Sarah goes in search of a safer place
00:21:20.000 : en:Sarah and the children find shelter
00:22:55.000 : en:Sarah and the children explore the island
00:24:58.000 : en:Sarah puts the children to bed after noticing a full moon
00:27:02.000 : en:Lilli and Richard play around the island
00:28:34.000 : en:Lilli and Richard ask Sarah questions; Waterfall
00:29:54.000 : en:Sarah explains marriage and children to Lilli and Richard; House
00:32:27.000 : en:Lilli and Richard go fishing; Ocean
00:34:22.000 : en:Sarah scolds Lilli and Richard for returning late; Shore
00:37:37.000 : en:The roof collapses; House
00:39:17.000 : en:Richard and Lilli pray for Sarah; House
00:40:11.000 : en:Sarah tells Richard and Lilli about what to do; House
00:41:55.000 : en:Lilli and Richard say goodbye; Gravesite
00:42:58.000 : en:Lilli and Richard talk about Easter; House
00:45:26.000 : en:Lilli and Richard start their egg hunt
00:47:59.000 : en:Richard admires Lilli; House
00:50:38.000 : en:Richard races with a shark; Ocean
00:51:47.000 : en:Lilli listens to Richard's story; House
00:54:55.000 : en:Lilli wakes up to a surprise; House
00:57:30.000 : en:Lilli laughs at Richard; House
00:58:54.000 : en:Richard decides to go to the forbidden area
00:59:53.000 : en:Richard finds a tribe; Forbidden area
01:04:46.000 : en:Lilli and Richard reconcile; Shore
01:06:51.000 : en:Richard and Lilli get married
01:08:59.000 : en:Lilli and Richard spot a ship
01:11:00.000 : en:Richard and Lilli welcome the Hillards; Shore
01:14:35.000 : en:The Hilliards dine with Richard and Lilli; House
01:16:47.000 : en:The Hilliards give clothes to Lilli and Richard; House
01:19:34.000 : en:Everyone goes about their duties
01:21:17.000 : en:Sylvia teaches Richard to dance; House
01:23:44.000 : en:Lilli confesses about her feelings to Richard; House
01:25:18.000 : en:Lilli tries to attract Richard's attention; House
01:26:58.000 : en:Sylvia tries to seduce Richard; Boat
01:28:29.000 : en:Quinlan threatens Lilli; Waterfall
01:29:23.000 : en:Richard refutes Sylvia's allegations; Boat
01:30:08.000 : en:Richard comes to Lilli's rescue; House
01:32:04.000 : en:Richard tricks Quinlan; Ocean
01:34:44.000 : en:Lilli and Richard decide to stay on the island; Shore
01:37:18.000 : en:Lilli and Richard continue their family
01:38:21.000 : en:End Credits


WEB-DL 1080p Screenshots

Return to the Blue Lagoon (1991)

Return to the Blue Lagoon (1991)

Return to the Blue Lagoon (1991)

Return to the Blue Lagoon (1991)

Return to the Blue Lagoon (1991)

Return to the Blue Lagoon (1991)


Come Visit My Blog (•‿•)