History Channel - Richard Hammond and the Holy Grail (2008)

Posted By: notbanned
History Channel - Richard Hammond and the Holy Grail (2008)

History Channel - Richard Hammond and the Holy Grail (2008)
PDTV | 832x468 | .MP4/AVC @ 1807 Kbps | 47mn 39s | 661 MiB
Audio: English AAC 128 kbps, 2 channels | Subs: None
Genre: Documentary

Richard Hammond embarks on a quest to find the truth about the most famous relic of all time - the Holy Grail. From the Aegean to the Atlantic, Hammond's journey takes him to some of the most beautiful and intriguing places in Europe. It's a route littered with some of the most extraordinary stories in history: ancient scrolls in the Vatican's secret archive; holy relics in Constantinople; medieval knights and hidden treasure in the South of France; Templars, Cathars and Nazis; conspiracy theories and false clues. Thought by many to be the very cup from which Jesus drank at the Last Supper, the Holy Grail has haunted public imagination for centuries, but left many unanswered questions. What is fact and what is fiction? Does the Grail exist or not, and what exactly is it?


General
Complete name : Richard.Hammond.and.the.Holy.Grail.PDTV.mp4
Format : MPEG-4
Format profile : Base Media
Codec ID : isom
File size : 661 MiB
Duration : 47mn 39s
Overall bit rate mode : Variable
Overall bit rate : 1 940 Kbps

Video
ID : 1
Format : AVC
Format/Info : Advanced Video Codec
Format profile : Main@L3
Format settings, CABAC : Yes
Format settings, ReFrames : 1 frame
Format settings, GOP : M=1, N=12
Codec ID : avc1
Codec ID/Info : Advanced Video Coding
Duration : 47mn 39s
Bit rate : 1 807 Kbps
Width : 832 pixels
Height : 468 pixels
Display aspect ratio : 16:9
Frame rate mode : Constant
Frame rate : 25.000 fps
Color space : YUV
Chroma subsampling : 4:2:0
Bit depth : 8 bits
Scan type : Progressive
Bits/(Pixel*Frame) : 0.186
Stream size : 616 MiB (93%)
Encoded date : UTC 2013-12-30 17:30:02
Tagged date : UTC 2013-12-30 17:30:02

Audio
ID : 2
Format : AAC
Format/Info : Advanced Audio Codec
Format profile : LC
Codec ID : 40
Duration : 47mn 39s
Bit rate mode : Variable
Bit rate : 128 Kbps
Channel(s) : 2 channels
Channel positions : Front: L R
Sampling rate : 48.0 KHz
Compression mode : Lossy
Stream size : 43.6 MiB (7%)
Encoded date : UTC 2013-12-30 17:30:02
Tagged date : UTC 2013-12-30 17:30:02


Screenshots:

History Channel - Richard Hammond and the Holy Grail (2008)

History Channel - Richard Hammond and the Holy Grail (2008)

History Channel - Richard Hammond and the Holy Grail (2008)

History Channel - Richard Hammond and the Holy Grail (2008)