Subcategories

Risen (2016)

Posted By: Without
Risen (2016)

Risen (2016)
BDRip | MKV | 720x300 | AVC@747 Kbps | English AAC@128 Kbps | Subs: English | 2 channels | 1h 47mn | 676 MB
BRRip | AVI | 720x304 | XviD@1451 Kbps | English AC3@384 Kbps | 6 channels | 1h 47mn | 1.38 GB
BDRip 720p | MKV | 1280x536 | AVC@5762 Kbps | English DTS@1509 Kbps | Subs: English | 6 channels | 1h 47mn | 5.46 GB
BDRip 1080p | MKV | 1920x800 | AVC@10.1 Mbps | English DTS@1509 Kbps | Subs: English | 6 channels | 1h 47mn | 8.74 GB
Genre: Action, Adventure, Drama

In 33 AD, a Roman Tribune in Judea is tasked to find the missing body of an executed Jew rumored to have risen from the dead.



General
Unique ID : 171143877228223638112885018972254214940 (0x80C11C9E9CD63171902618CC22319B1C)
Complete name : dmd-risen.bdrip.x264.mkv
Format : Matroska
Format version : Version 4 / Version 2
File size : 676 MiB
Duration : 1h 47mn
Overall bit rate : 878 Kbps
Encoded date : UTC 2016-05-05 22:14:13
Writing application : mkvmerge v8.5.2 ('DiAMOND') 64bit
Writing library : libebml v1.3.3 + libmatroska v1.4.4

Video
ID : 1
Format : AVC
Format/Info : Advanced Video Codec
Format profile : High@L3.1
Format settings, CABAC : Yes
Format settings, ReFrames : 5 frames
Codec ID : V_MPEG4/ISO/AVC
Duration : 1h 47mn
Width : 720 pixels
Height : 300 pixels
Display aspect ratio : 2.40:1
Frame rate mode : Constant
Frame rate : 23.976 (24000/1001) fps
Color space : YUV
Chroma subsampling : 4:2:0
Bit depth : 8 bits
Scan type : Progressive
Writing library : x264 core 148 r2692 64f4e24
Encoding settings : cabac=1 / ref=5 / deblock=1:-2:-2 / analyse=0x3:0x113 / me=umh / subme=8 / psy=1 / psy_rd=1.00:0.00 / mixed_ref=1 / me_range=16 / chroma_me=1 / trellis=1 / 8x8dct=1 / cqm=0 / deadzone=21,11 / fast_pskip=1 / chroma_qp_offset=-2 / threads=9 / lookahead_threads=1 / sliced_threads=0 / nr=0 / decimate=1 / interlaced=0 / bluray_compat=0 / constrained_intra=0 / bframes=3 / b_pyramid=2 / b_adapt=2 / b_bias=0 / direct=3 / weightb=1 / open_gop=0 / weightp=2 / keyint=240 / keyint_min=24 / scenecut=40 / intra_refresh=0 / rc_lookahead=50 / rc=crf / mbtree=1 / crf=19.0 / qcomp=0.60 / qpmin=0 / qpmax=69 / qpstep=4 / ip_ratio=1.40 / aq=1:0.70
Language : English
Default : Yes
Forced : No
Color range : Limited
Matrix coefficients : BT.709

Audio
ID : 2
Format : AAC
Format/Info : Advanced Audio Codec
Format profile : LC
Codec ID : A_AAC
Duration : 1h 47mn
Channel(s) : 2 channels
Channel positions : Front: L R
Sampling rate : 48.0 KHz
Frame rate : 46.875 fps (1024 spf)
Compression mode : Lossy
Delay relative to video : 9ms
Language : English
Default : Yes
Forced : No

Text #1
ID : 3
Format : UTF-8
Codec ID : S_TEXT/UTF8
Codec ID/Info : UTF-8 Plain Text
Title : English regular
Default : No
Forced : No

Text #2
ID : 4
Format : UTF-8
Codec ID : S_TEXT/UTF8
Codec ID/Info : UTF-8 Plain Text
Title : English SDH
Default : No
Forced : No

Menu #1
00:00:00.000 : en:00:00:00.000
00:06:50.243 : en:00:06:50.243
00:14:18.733 : en:00:14:18.733
00:21:48.182 : en:00:21:48.182
00:27:35.195 : en:00:27:35.195
00:33:21.082 : en:00:33:21.082
00:40:03.985 : en:00:40:03.985
00:46:19.193 : en:00:46:19.193
00:54:06.243 : en:00:54:06.243
01:00:06.478 : en:01:00:06.478
01:07:53.027 : en:01:07:53.027
01:13:54.847 : en:01:13:54.847
01:19:46.657 : en:01:19:46.657
01:25:42.387 : en:01:25:42.387
01:33:16.132 : en:01:33:16.132
01:38:41.833 : en:01:38:41.833

Menu #2
00:00:00.054 : en:00:00:00.054

General
Complete name : Risen.2016.BRRip.XviD.AC3-EVO\Risen.2016.BRRip.XviD.AC3-EVO.avi
Format : AVI
Format/Info : Audio Video Interleave
File size : 1.39 GiB
Duration : 1h 47mn
Overall bit rate : 1 844 Kbps
Writing library : VirtualDub build 32593/release

Video
ID : 0
Format : MPEG-4 Visual
Format profile : Advanced Simple@L5
Format settings, BVOP : 2
Format settings, QPel : No
Format settings, GMC : No warppoints
Format settings, Matrix : Default (H.263)
Muxing mode : Packed bitstream
Codec ID : XVID
Codec ID/Hint : XviD
Duration : 1h 47mn
Bit rate : 1 451 Kbps
Width : 720 pixels
Height : 304 pixels
Display aspect ratio : 2.35:1
Frame rate : 23.976 (23976/1000) fps
Color space : YUV
Chroma subsampling : 4:2:0
Bit depth : 8 bits
Scan type : Progressive
Compression mode : Lossy
Bits/(Pixel*Frame) : 0.276
Stream size : 1.09 GiB (79%)
Writing library : XviD 66

Audio
ID : 1
Format : AC-3
Format/Info : Audio Coding 3
Mode extension : CM (complete main)
Format settings, Endianness : Big
Codec ID : 2000
Duration : 1h 47mn
Bit rate mode : Constant
Bit rate : 384 Kbps
Channel(s) : 6 channels
Channel positions : Front: L C R, Side: L R, LFE
Sampling rate : 48.0 KHz
Frame rate : 31.250 fps (1536 spf)
Compression mode : Lossy
Stream size : 296 MiB (21%)
Alignment : Aligned on interleaves
Interleave, duration : 42 ms (1.00 video frame)
Interleave, preload duration : 512 ms

General
Unique ID : 230941977690559721556145519060633692942 (0xADBDCE99312CD790B48BDB7439EEAB0E)
Complete name : rep-risen.720p.bluray.x264.mkv
Format : Matroska
Format version : Version 4 / Version 2
File size : 5.47 GiB
Duration : 1h 47mn
Overall bit rate : 7 272 Kbps
Encoded date : UTC 2016-05-05 21:21:58
Writing application : mkvmerge v8.5.2 ('DiAMOND') 64bit
Writing library : libebml v1.3.3 + libmatroska v1.4.4

Video
ID : 1
Format : AVC
Format/Info : Advanced Video Codec
Format profile : High@L4.1
Format settings, CABAC : Yes
Format settings, ReFrames : 5 frames
Codec ID : V_MPEG4/ISO/AVC
Duration : 1h 47mn
Bit rate : 5 762 Kbps
Width : 1 280 pixels
Height : 536 pixels
Display aspect ratio : 2.40:1
Frame rate mode : Constant
Frame rate : 23.976 (24000/1001) fps
Color space : YUV
Chroma subsampling : 4:2:0
Bit depth : 8 bits
Scan type : Progressive
Bits/(Pixel*Frame) : 0.350
Stream size : 4.22 GiB (77%)
Writing library : x264 core 148 r2692 64f4e24
Encoding settings : cabac=1 / ref=5 / deblock=1:0:0 / analyse=0x3:0x113 / me=umh / subme=8 / psy=1 / psy_rd=1.00:0.00 / mixed_ref=1 / me_range=16 / chroma_me=1 / trellis=1 / 8x8dct=1 / cqm=0 / deadzone=21,11 / fast_pskip=0 / chroma_qp_offset=-2 / threads=17 / lookahead_threads=2 / sliced_threads=0 / nr=0 / decimate=1 / interlaced=0 / bluray_compat=0 / constrained_intra=0 / bframes=3 / b_pyramid=2 / b_adapt=2 / b_bias=0 / direct=3 / weightb=1 / open_gop=0 / weightp=2 / keyint=250 / keyint_min=23 / scenecut=40 / intra_refresh=0 / rc_lookahead=50 / rc=2pass / mbtree=1 / bitrate=5762 / ratetol=1.0 / qcomp=0.60 / qpmin=0 / qpmax=69 / qpstep=4 / cplxblur=20.0 / qblur=0.5 / ip_ratio=1.40 / aq=1:1.00
Language : English
Default : Yes
Forced : No

Audio
ID : 2
Format : DTS
Format/Info : Digital Theater Systems
Mode : 16
Format settings, Endianness : Big
Codec ID : A_DTS
Duration : 1h 47mn
Bit rate mode : Constant
Bit rate : 1 509 Kbps
Channel(s) : 6 channels
Channel positions : Front: L C R, Side: L R, LFE
Sampling rate : 48.0 KHz
Frame rate : 93.750 fps (512 spf)
Bit depth : 24 bits
Compression mode : Lossy
Stream size : 1.13 GiB (21%)
Language : English
Default : Yes
Forced : No

Text #1
ID : 3
Format : UTF-8
Codec ID : S_TEXT/UTF8
Codec ID/Info : UTF-8 Plain Text
Title : English regular
Language : English
Default : No
Forced : No

Text #2
ID : 4
Format : UTF-8
Codec ID : S_TEXT/UTF8
Codec ID/Info : UTF-8 Plain Text
Title : English SDH
Language : English
Default : No
Forced : No

Menu
00:00:00.000 : en:00:00:00.000
00:06:50.243 : en:00:06:50.243
00:14:18.733 : en:00:14:18.733
00:21:48.182 : en:00:21:48.182
00:27:35.195 : en:00:27:35.195
00:33:21.082 : en:00:33:21.082
00:40:03.985 : en:00:40:03.985
00:46:19.193 : en:00:46:19.193
00:54:06.243 : en:00:54:06.243
01:00:06.478 : en:01:00:06.478
01:07:53.027 : en:01:07:53.027
01:13:54.847 : en:01:13:54.847
01:19:46.657 : en:01:19:46.657
01:25:42.387 : en:01:25:42.387
01:33:16.132 : en:01:33:16.132
01:38:41.833 : en:01:38:41.833

General
Unique ID : 232231090855764204655485946233750371212 (0xAEB614C8D8D8DBD69C0D2E54E6FD3B8C)
Complete name : rep-risen.1080p.bluray.x264.mkv
Format : Matroska
Format version : Version 4 / Version 2
File size : 8.75 GiB
Duration : 1h 47mn
Overall bit rate : 11.6 Mbps
Encoded date : UTC 2016-05-05 21:25:28
Writing application : mkvmerge v8.5.2 ('DiAMOND') 64bit
Writing library : libebml v1.3.3 + libmatroska v1.4.4

Video
ID : 1
Format : AVC
Format/Info : Advanced Video Codec
Format profile : High@L4.1
Format settings, CABAC : Yes
Format settings, ReFrames : 5 frames
Codec ID : V_MPEG4/ISO/AVC
Duration : 1h 47mn
Bit rate : 10.1 Mbps
Width : 1 920 pixels
Height : 800 pixels
Display aspect ratio : 2.40:1
Frame rate mode : Constant
Frame rate : 23.976 (24000/1001) fps
Color space : YUV
Chroma subsampling : 4:2:0
Bit depth : 8 bits
Scan type : Progressive
Bits/(Pixel*Frame) : 0.275
Stream size : 7.44 GiB (85%)
Writing library : x264 core 148 r2665 a01e339
Encoding settings : cabac=1 / ref=5 / deblock=1:0:0 / analyse=0x3:0x113 / me=umh / subme=8 / psy=1 / psy_rd=1.00:0.00 / mixed_ref=1 / me_range=16 / chroma_me=1 / trellis=1 / 8x8dct=1 / cqm=0 / deadzone=21,11 / fast_pskip=0 / chroma_qp_offset=-2 / threads=24 / lookahead_threads=4 / sliced_threads=0 / nr=0 / decimate=1 / interlaced=0 / bluray_compat=0 / constrained_intra=0 / bframes=3 / b_pyramid=2 / b_adapt=2 / b_bias=0 / direct=3 / weightb=1 / open_gop=0 / weightp=2 / keyint=250 / keyint_min=23 / scenecut=40 / intra_refresh=0 / rc_lookahead=50 / rc=2pass / mbtree=1 / bitrate=10126 / ratetol=1.0 / qcomp=0.60 / qpmin=0 / qpmax=69 / qpstep=4 / cplxblur=20.0 / qblur=0.5 / ip_ratio=1.40 / aq=1:1.00
Language : English
Default : Yes
Forced : No

Audio
ID : 2
Format : DTS
Format/Info : Digital Theater Systems
Mode : 16
Format settings, Endianness : Big
Codec ID : A_DTS
Duration : 1h 47mn
Bit rate mode : Constant
Bit rate : 1 509 Kbps
Channel(s) : 6 channels
Channel positions : Front: L C R, Side: L R, LFE
Sampling rate : 48.0 KHz
Frame rate : 93.750 fps (512 spf)
Bit depth : 24 bits
Compression mode : Lossy
Stream size : 1.13 GiB (13%)
Language : English
Default : Yes
Forced : No

Text #1
ID : 3
Format : UTF-8
Codec ID : S_TEXT/UTF8
Codec ID/Info : UTF-8 Plain Text
Title : English regular
Default : No
Forced : No

Text #2
ID : 4
Format : UTF-8
Codec ID : S_TEXT/UTF8
Codec ID/Info : UTF-8 Plain Text
Title : English SDH
Default : No
Forced : No

Menu
00:00:00.000 : en:00:00:00.000
00:06:50.243 : en:00:06:50.243
00:14:18.733 : en:00:14:18.733
00:21:48.182 : en:00:21:48.182
00:27:35.195 : en:00:27:35.195
00:33:21.082 : en:00:33:21.082
00:40:03.985 : en:00:40:03.985
00:46:19.193 : en:00:46:19.193
00:54:06.243 : en:00:54:06.243
01:00:06.478 : en:01:00:06.478
01:07:53.027 : en:01:07:53.027
01:13:54.847 : en:01:13:54.847
01:19:46.657 : en:01:19:46.657
01:25:42.387 : en:01:25:42.387
01:33:16.132 : en:01:33:16.132
01:38:41.833 : en:01:38:41.833


BDRip Screenshots

Risen (2016)

Risen (2016)

Risen (2016)


BRRip Screenshots

Risen (2016)

Risen (2016)

Risen (2016)


BDRip 720p Screenshots

Risen (2016)

Risen (2016)

Risen (2016)


BDRip 1080pScreenshots

Risen (2016)

Risen (2016)

Risen (2016)


Come Visit My Blog (•‿•)