Tags
Language
Tags

Roger Waters: Us + Them (2019)

Posted By: Tavaz
1080p (FullHD) / BDRip IMDb
Roger Waters: Us + Them (2019)

Roger Waters: Us + Them (2019)
BDRip | MKV | 1920x1080 | English | H264 @ 5760 kbps | AC-3 @ 448 kbps | 1 h 59 min | 5.17 GiB
Subtitles: English
Genre: Documentary, Music

Filmed in Amsterdam on the European leg of his 2017 – 2018 Us + Them tour which saw Waters perform to over two million people worldwide, the film features songs from his legendary Pink Floyd albums (The Dark Side of the Moon, The Wall, Animals, Wish You Were Here) and from his last album, Is This The Life We Really Want?

4652477e86adc285e165737ac1166256.mkv (5.2 GB)



General
Complete name : ./4652477e86adc285e165737ac1166256.mkv
Format : Matroska
Format version : Version 4 / Version 2
File size : 5.17 GiB
Duration : 1 h 59 min
Overall bit rate : 6 201 kb/s
Encoded date : UTC 2020-10-10 21:36:32 / UTC 2020-10-10T03:40:12Z
Writing application : mkvmerge v47.0.0 ('Black Flag') 64-bit
Writing library : libebml v1.3.10 + libmatroska v1.5.2 / Lavf57.7.2

Video
ID : 1
Format : AVC
Format/Info : Advanced Video Codec
Format profile : High@L4
Format settings : CABAC / 4 Ref Frames
Format settings, CABAC : Yes
Format settings, RefFrames : 4 frames
Codec ID : V_MPEG4/ISO/AVC
Duration : 1 h 59 min
Bit rate : 5 760 kb/s
Width : 1 920 pixels
Height : 1 080 pixels
Display aspect ratio : 16:9
Frame rate mode : Constant
Frame rate : 24.000 FPS
Color space : YUV
Chroma subsampling : 4:2:0
Bit depth : 8 bits
Scan type : Progressive
Bits/(Pixel*Frame) : 0.116
Stream size : 4.70 GiB (91%)
Writing library : x264 core 155 r2901 7d0ff22
Encoding settings : cabac=1 / ref=4 / deblock=1:-3:-3 / analyse=0x3:0x133 / me=umh / subme=9 / psy=1 / psy_rd=1.10:0.25 / mixed_ref=1 / me_range=32 / chroma_me=1 / trellis=2 / 8x8dct=1 / cqm=0 / deadzone=6,6 / fast_pskip=1 / chroma_qp_offset=-4 / threads=34 / lookahead_threads=3 / sliced_threads=0 / nr=0 / decimate=1 / interlaced=0 / bluray_compat=0 / constrained_intra=0 / bframes=6 / b_pyramid=2 / b_adapt=2 / b_bias=0 / direct=3 / weightb=1 / open_gop=0 / weightp=2 / keyint=240 / keyint_min=24 / scenecut=40 / intra_refresh=0 / rc_lookahead=40 / rc=2pass / mbtree=1 / bitrate=5760 / ratetol=1.0 / qcomp=0.60 / qpmin=0 / qpmax=69 / qpstep=4 / cplxblur=20.0 / qblur=0.5 / vbv_maxrate=20000 / vbv_bufsize=25000 / nal_hrd=none / filler=0 / ip_ratio=1.40 / aq=1:1.00
Language : English
Default : Yes
Forced : No
Color range : Limited
Color primaries : BT.709
Transfer characteristics : BT.709
Matrix coefficients : BT.709
Statistics Tags Issue : mkvmerge v47.0.0 ('Black Flag') 64-bit 2020-10-10 21:36:32 / mkvmerge v47.0.0 ('Black Flag') 64-bit 2020-10-10 21:36:32 / UTC 2020-10-10T03:40:12Z
FromStats_BitRate : 5750973
FromStats_Duration : 01:59:26.125000000
FromStats_FrameCount : 171987
FromStats_StreamSize : 5151524330

Audio
ID : 2
Format : AC-3
Format/Info : Audio Coding 3
Format settings, Endianness : Big
Codec ID : A_AC3
Duration : 1 h 59 min
Bit rate mode : Constant
Bit rate : 448 kb/s
Channel(s) : 6 channels
Channel positions : Front: L C R, Side: L R, LFE
Sampling rate : 48.0 kHz
Frame rate : 31.250 FPS (1536 SPF)
Bit depth : 16 bits
Compression mode : Lossy
Stream size : 383 MiB (7%)
Title : Surround
Language : English
Service kind : Complete Main
Default : Yes
Forced : No
Statistics Tags Issue : mkvmerge v47.0.0 ('Black Flag') 64-bit 2020-10-10 21:36:32 / mkvmerge v47.0.0 ('Black Flag') 64-bit 2020-10-10 21:36:32 / UTC 2020-10-10T03:40:12Z
FromStats_BitRate : 448000
FromStats_Duration : 01:59:25.120000000
FromStats_FrameCount : 223910
FromStats_StreamSize : 401246720

Text
ID : 3
Format : UTF-8
Codec ID : S_TEXT/UTF8
Codec ID/Info : UTF-8 Plain Text
Language : English
Default : Yes
Forced : No
Statistics Tags Issue : mkvmerge v47.0.0 ('Black Flag') 64-bit 2020-10-10 21:36:32 / mkvmerge v47.0.0 ('Black Flag') 64-bit 2020-10-10 21:36:32 / UTC 2020-10-10T03:40:12Z
FromStats_BitRate : 3
FromStats_Duration : 01:57:29.250000000
FromStats_FrameCount : 71
FromStats_StreamSize : 2991

Menu
00:00:00.000 : :Intro
00:01:42.375 : :Speak To Me
00:02:15.292 : :Breathe
00:04:59.417 : :One of These Days
00:10:27.042 : :Time
00:16:21.625 : :Breathe (Reprise)
00:17:30.917 : :The Great Gig in the Sky
00:22:30.542 : :Welcome to the Machine
00:29:26.750 : :Déjà Vu
00:35:15.542 : :The Last Refugee
00:39:23.000 : :Picture That
00:46:25.667 : :Wish You Were Here
00:51:22.250 : :The Happiest Days of Our Lives
00:53:21.208 : :Another Brick in the Wall Part 2
00:56:40.000 : :Another Brick in the Wall Part 3
00:58:15.000 : :Deployment
01:00:20.417 : :Dogs
01:16:18.000 : :Pigs (Three Different Ones)
01:27:54.042 : :Money
01:35:17.625 : :Us & Them
01:43:04.083 : :Braine Damage
01:47:37.583 : :Eclipse
01:51:02.000 : :Roger Addresses Audience
01:52:14.708 : :Credits/The Last Refugee (Reprise)
01:53:45.417 : :Credits/Déjà Vu (Reprise)





Roger Waters: Us + Them (2019)


Roger Waters: Us + Them (2019)


Roger Waters: Us + Them (2019)


Roger Waters: Us + Them (2019)


Roger Waters: Us + Them (2019)