Subcategories

Rogue One: A Star Wars Story (2016) [UPDATE]

Posted By: JohnSmith
Rogue One: A Star Wars Story (2016) [UPDATE]

Rogue One: A Star Wars Story / Rogue One (2016)
BDRip | MKV / AVC@1893 kb/s | 848x356 | 2h 13mn | 2.37 GB
Italian (dubbed): AC3, 640 kb/s (6 ch) | Subtitles: Italian (forced, full)
BDRip 720p | MKV / AVC@4620 kb/s | 1280x536 | 2h 13mn | 5.74 GB
Italian (dubbed): DTS, 1509 kb/s (6 ch) | Subtitles: Italian (forced, full)
BDRip 1080p | MKV / AVC@9006 kb/s | 1920x808 | 2h 13mn | 9.84 GB
Italian (dubbed): DTS, 1509 kb/s (6 ch) | Subtitles: Italian (forced, full)
Genre: Action | Adventure | Sci-Fi

Un gruppo eterogeneo di combattenti ribelli si lancia nel disperato tentativo di rubare i piani della Morte Nera e impedirgli in tal modo di guadagnare terreno e potere.

IMDB - Nominated for 2 Oscars. Another 8 wins & 68 nominations.


UPDATE: iTunes audio ––> BluRay original (studio) audio


General
Unique ID : 203166632135718939793922844727015539988 (0x98D878556587A13E849ED8BEC83E8514)
Complete name : A:\Rogue.One.A.Star.Wars.Story.2016.iTA.BDRip.480p-DDN.mkv
Format : Matroska
Format version : Version 4 / Version 2
File size : 2.37 GiB
Duration : 2 h 13 min
Overall bit rate : 2 535 kb/s
Encoded date : UTC 2017-04-07 07:38:26
Writing application : mkvmerge v8.3.0 ('Over the Horizon') 64bit
Writing library : libebml v1.3.1 + libmatroska v1.4.2

Video
ID : 1
Format : AVC
Format/Info : Advanced Video Codec
Format profile : High@L4.1
Format settings, CABAC : Yes
Format settings, ReFrames : 5 frames
Codec ID : V_MPEG4/ISO/AVC
Duration : 2 h 13 min
Bit rate : 1 893 kb/s
Width : 848 pixels
Height : 356 pixels
Display aspect ratio : 2.40:1
Frame rate mode : Constant
Frame rate : 23.976 (24000/1001) FPS
Color space : YUV
Chroma subsampling : 4:2:0
Bit depth : 8 bits
Scan type : Progressive
Bits/(Pixel*Frame) : 0.262
Stream size : 1.77 GiB (75%)
Writing library : x264 core 148 r2705+54 9f484c1 t_mod_Custom [8-bit@all X86_64]
Encoding settings : cabac=1 / ref=5 / deblock=1:-2:-2 / analyse=0x3:0x133 / me=umh / subme=7 / psy=1 / fade_compensate=0.00 / psy_rd=1.05:0.00 / mixed_ref=1 / me_range=32 / chroma_me=1 / trellis=2 / 8x8dct=1 / cqm=0 / deadzone=21,11 / fast_pskip=0 / chroma_qp_offset=-2 / threads=11 / lookahead_threads=1 / sliced_threads=0 / nr=0 / decimate=0 / interlaced=0 / bluray_compat=0 / constrained_intra=0 / fgo=0 / bframes=3 / b_pyramid=2 / b_adapt=2 / b_bias=0 / direct=3 / weightb=1 / open_gop=0 / weightp=2 / keyint=240 / keyint_min=23 / scenecut=40 / intra_refresh=0 / rc_lookahead=40 / rc=2pass / mbtree=1 / bitrate=1893 / ratetol=1.0 / qcomp=0.65 / qpmin=0:0:0 / qpmax=69:69:69 / qpstep=4 / cplxblur=20.0 / qblur=0.5 / vbv_maxrate=50000 / vbv_bufsize=50000 / nal_hrd=none / filler=0 / ip_ratio=1.40 / aq=3:0.80 / aq-sensitivity=10.00 / aq-factor=1.00:1.00:1.00 / aq2=0 / aq3=0
Language : English
Default : Yes
Forced : No

Audio
ID : 2
Format : AC-3
Format/Info : Audio Coding 3
Mode extension : CM (complete main)
Format settings, Endianness : Big
Codec ID : A_AC3
Duration : 2 h 13 min
Bit rate mode : Constant
Bit rate : 640 kb/s
Channel(s) : 6 channels
Channel positions : Front: L C R, Side: L R, LFE
Sampling rate : 48.0 kHz
Frame rate : 31.250 FPS (1536 spf)
Compression mode : Lossy
Stream size : 613 MiB (25%)
Title : AC3 iTA
Language : Italian
Default : Yes
Forced : No

Text #1
ID : 3
Format : UTF-8
Codec ID : S_TEXT/UTF8
Codec ID/Info : UTF-8 Plain Text
Duration : 25 min 37 s
Bit rate : 1 b/s
Count of elements : 9
Stream size : 227 Bytes (0%)
Title : FORCED iTA
Language : Italian
Default : Yes
Forced : Yes

Text #2
ID : 4
Format : UTF-8
Codec ID : S_TEXT/UTF8
Codec ID/Info : UTF-8 Plain Text
Duration : 2 h 5 min
Bit rate : 46 b/s
Count of elements : 1502
Stream size : 43.1 KiB (0%)
Title : REGULAR iTA
Language : Italian
Default : No
Forced : No





General
Unique ID : 232935405858653179060181064019431535454 (0xAF3DBA31FA98D919AC392A1C9222335E)
Complete name : A:\Rogue.One.A.Star.Wars.Story.2016.iTA.BDRip.720p-BFD.mkv
Format : Matroska
Format version : Version 4 / Version 2
File size : 5.74 GiB
Duration : 2 h 13 min
Overall bit rate : 6 132 kb/s
Encoded date : UTC 2017-04-07 07:34:55
Writing application : mkvmerge v8.3.0 ('Over the Horizon') 64bit
Writing library : libebml v1.3.1 + libmatroska v1.4.2

Video
ID : 1
Format : AVC
Format/Info : Advanced Video Codec
Format profile : Baseline@L4.1
Format settings, CABAC : No
Format settings, ReFrames : 1 frame
Codec ID : V_MPEG4/ISO/AVC
Duration : 2 h 13 min
Bit rate : 4 619 kb/s
Width : 1 280 pixels
Height : 536 pixels
Display aspect ratio : 2.40:1
Frame rate mode : Constant
Frame rate : 23.976 (24000/1001) FPS
Color space : YUV
Chroma subsampling : 4:2:0
Bit depth : 8 bits
Scan type : Progressive
Bits/(Pixel*Frame) : 0.281
Stream size : 4.32 GiB (75%)
Writing library : x264 core 148 r2638 7599210
Encoding settings : cabac=0 / ref=1 / deblock=0:0:0 / analyse=0:0 / me=dia / subme=0 / psy=1 / psy_rd=1.00:0.00 / mixed_ref=0 / me_range=16 / chroma_me=1 / trellis=0 / 8x8dct=0 / cqm=0 / deadzone=21,11 / fast_pskip=1 / chroma_qp_offset=0 / threads=17 / lookahead_threads=2 / sliced_threads=0 / nr=0 / decimate=1 / interlaced=0 / bluray_compat=0 / constrained_intra=0 / bframes=0 / weightp=0 / keyint=240 / keyint_min=23 / scenecut=0 / intra_refresh=0 / rc_lookahead=0 / rc=2pass / mbtree=0 / bitrate=4619 / ratetol=1.0 / qcomp=0.60 / qpmin=0 / qpmax=69 / qpstep=4 / cplxblur=20.0 / qblur=0.5 / vbv_maxrate=50000 / vbv_bufsize=50000 / nal_hrd=none / filler=0 / ip_ratio=1.40 / aq=3:0.80
Language : English
Default : Yes
Forced : No

Audio
ID : 2
Format : DTS
Format/Info : Digital Theater Systems
Mode : 16
Format settings, Endianness : Big
Codec ID : A_DTS
Duration : 2 h 13 min
Bit rate mode : Constant
Bit rate : 1 509 kb/s
Channel(s) : 6 channels
Channel positions : Front: L C R, Side: L R, LFE
Sampling rate : 48.0 kHz
Frame rate : 93.750 FPS (512 spf)
Bit depth : 24 bits
Compression mode : Lossy
Stream size : 1.41 GiB (25%)
Title : dts
Language : Italian
Default : Yes
Forced : No

Text #1
ID : 3
Format : UTF-8
Codec ID : S_TEXT/UTF8
Codec ID/Info : UTF-8 Plain Text
Duration : 25 min 37 s
Bit rate : 1 b/s
Count of elements : 9
Stream size : 227 Bytes (0%)
Title : forced
Language : Italian
Default : Yes
Forced : Yes

Text #2
ID : 4
Format : UTF-8
Codec ID : S_TEXT/UTF8
Codec ID/Info : UTF-8 Plain Text
Duration : 2 h 5 min
Bit rate : 47 b/s
Count of elements : 1502
Stream size : 43.2 KiB (0%)
Language : Italian
Default : No
Forced : No





General
Unique ID : 183243582392438958643279696683019149988 (0x89DB6E24833CDAB2AB88DBAB7D2222A4)
Complete name : A:\Rogue.One.A.Star.Wars.Story.2016.iTA.BDRip.1080p.mkv
Format : Matroska
Format version : Version 4 / Version 2
File size : 9.84 GiB
Duration : 2 h 13 min
Overall bit rate : 10.5 Mb/s
Encoded date : UTC 2017-04-07 07:37:10
Writing application : mkvmerge v8.3.0 ('Over the Horizon') 64bit
Writing library : libebml v1.3.1 + libmatroska v1.4.2

Video
ID : 1
Format : AVC
Format/Info : Advanced Video Codec
Format profile : High@L4.1
Format settings, CABAC : Yes
Format settings, ReFrames : 5 frames
Codec ID : V_MPEG4/ISO/AVC
Duration : 2 h 13 min
Bit rate : 9 006 kb/s
Width : 1 920 pixels
Height : 808 pixels
Display aspect ratio : 2.40:1
Frame rate mode : Constant
Frame rate : 23.976 FPS
Color space : YUV
Chroma subsampling : 4:2:0
Bit depth : 8 bits
Scan type : Progressive
Bits/(Pixel*Frame) : 0.242
Stream size : 8.43 GiB (86%)
Writing library : x264 core 148 r2744 b97ae06
Encoding settings : cabac=1 / ref=5 / deblock=1:0:0 / analyse=0x3:0x133 / me=umh / subme=7 / psy=1 / psy_rd=1.00:0.00 / mixed_ref=1 / me_range=16 / chroma_me=1 / trellis=1 / 8x8dct=1 / cqm=0 / deadzone=21,11 / fast_pskip=0 / chroma_qp_offset=-2 / threads=18 / lookahead_threads=3 / sliced_threads=0 / nr=0 / decimate=1 / interlaced=0 / bluray_compat=0 / constrained_intra=0 / bframes=3 / b_pyramid=2 / b_adapt=1 / b_bias=0 / direct=1 / weightb=1 / open_gop=0 / weightp=2 / keyint=250 / keyint_min=23 / scenecut=40 / intra_refresh=0 / rc_lookahead=40 / rc=2pass / mbtree=1 / bitrate=9006 / ratetol=1.0 / qcomp=0.60 / qpmin=0 / qpmax=69 / qpstep=4 / cplxblur=20.0 / qblur=0.5 / ip_ratio=1.40 / aq=1:1.00
Language : English
Default : Yes
Forced : No

Audio
ID : 2
Format : DTS
Format/Info : Digital Theater Systems
Mode : 16
Format settings, Endianness : Big
Codec ID : A_DTS
Duration : 2 h 13 min
Bit rate mode : Constant
Bit rate : 1 509 kb/s
Channel(s) : 6 channels
Channel positions : Front: L C R, Side: L R, LFE
Sampling rate : 48.0 kHz
Frame rate : 93.750 FPS (512 spf)
Bit depth : 24 bits
Compression mode : Lossy
Stream size : 1.41 GiB (14%)
Title : dts
Language : Italian
Default : Yes
Forced : No

Text #1
ID : 3
Format : UTF-8
Codec ID : S_TEXT/UTF8
Codec ID/Info : UTF-8 Plain Text
Duration : 25 min 37 s
Bit rate : 1 b/s
Count of elements : 9
Stream size : 227 Bytes (0%)
Title : forced
Language : Italian
Default : Yes
Forced : Yes

Text #2
ID : 4
Format : UTF-8
Codec ID : S_TEXT/UTF8
Codec ID/Info : UTF-8 Plain Text
Duration : 2 h 5 min
Bit rate : 47 b/s
Count of elements : 1502
Stream size : 43.2 KiB (0%)
Language : Italian
Default : No
Forced : No




Screenshots BDRip

Rogue One: A Star Wars Story (2016) [UPDATE]

Rogue One: A Star Wars Story (2016) [UPDATE]

Rogue One: A Star Wars Story (2016) [UPDATE]


Screenshots BDRip 720p

Rogue One: A Star Wars Story (2016) [UPDATE]

Rogue One: A Star Wars Story (2016) [UPDATE]

Rogue One: A Star Wars Story (2016) [UPDATE]


Screenshots BDRip 1080p

Rogue One: A Star Wars Story (2016) [UPDATE]

Rogue One: A Star Wars Story (2016) [UPDATE]

Rogue One: A Star Wars Story (2016) [UPDATE]