Tags
Language
Tags

Roma (2018)

Posted By: Tavaz
1080p (FullHD) / BDRip IMDb
Roma (2018)

Roma (2018)
BDRip | MKV | 1920x1080 | Español | H264 @ 5760 kbps | AC-3 @ 448 kbps | 2 h 14 min | 5.85 GiB
Subtitles: English
Genre: Drama

Roma marchează întoarcerea lui Alfonso Cuarón acasă, în Mexic, şi este totodată văzut ca cel mai personal film al regizorului, fiind inspirat de poveştile femeilor din copilăria sa. Cel mai personal proiect de până acum al regizorului și scenaristului premiat cu Oscar Alfonso Cuarón (Gravity, Children of Men, Y Tu Mama Tambien), Roma urmărește povestea lui Cleo (Yalitza Aparicio), o tânără angajată în casa unei familii din cartierul de clasă mijlocie Roma din Mexico City. Prin crearea unei scrisori de iubire adresate femeilor care l-au crescut, Cuarón pornește de la propria sa copilărie pentru a crea un portret viu și emoționant al conflictelor interne și al ierarhiei sociale în timpul turbulențelor politice din anii 1970. Primul proiect al lui Cuarón de la revoluționarul Gravity din 2013.

72ea740e0fa248fa8867c4931f1c2aa8.mkv (5.9 GB)



General
Unique ID : 120871164088841583182615083237213851373 (0x5AEEF07EB11D8081F6D8DE75ADE5CEED)
Complete name : ./72ea740e0fa248fa8867c4931f1c2aa8.mkv
Format : Matroska
Format version : Version 4 / Version 2
File size : 5.85 GiB
Duration : 2 h 14 min
Overall bit rate : 6 207 kb/s
Movie name : Roma.2018.1080p.BluRay.x264-nikt0
Encoded date : UTC 2020-02-05 22:20:36 / UTC 2020-02-05T09:16:13Z
Writing application : mkvmerge v38.0.0 ('The Silent Type') 64-bit
Writing library : libebml v1.3.9 + libmatroska v1.5.2 / Lavf57.7.2

Video
ID : 1
Format : AVC
Format/Info : Advanced Video Codec
Format profile : High@L4
Format settings : CABAC / 4 Ref Frames
Format settings, CABAC : Yes
Format settings, RefFrames : 4 frames
Codec ID : V_MPEG4/ISO/AVC
Duration : 2 h 14 min
Bit rate : 5 760 kb/s
Width : 1 920 pixels
Height : 1 080 pixels
Display aspect ratio : 16:9
Frame rate mode : Constant
Frame rate : 23.976 (24000/1001) FPS
Color space : YUV
Chroma subsampling : 4:2:0
Bit depth : 8 bits
Scan type : Progressive
Bits/(Pixel*Frame) : 0.116
Stream size : 5.31 GiB (91%)
Writing library : x264 core 155 r2901 7d0ff22
Encoding settings : cabac=1 / ref=4 / deblock=1:-3:-3 / analyse=0x3:0x133 / me=umh / subme=9 / psy=1 / psy_rd=1.10:0.25 / mixed_ref=1 / me_range=32 / chroma_me=1 / trellis=2 / 8x8dct=1 / cqm=0 / deadzone=6,6 / fast_pskip=1 / chroma_qp_offset=-4 / threads=34 / lookahead_threads=3 / sliced_threads=0 / nr=0 / decimate=1 / interlaced=0 / bluray_compat=0 / constrained_intra=0 / bframes=6 / b_pyramid=2 / b_adapt=2 / b_bias=0 / direct=3 / weightb=1 / open_gop=0 / weightp=2 / keyint=240 / keyint_min=24 / scenecut=40 / intra_refresh=0 / rc_lookahead=40 / rc=2pass / mbtree=1 / bitrate=5760 / ratetol=1.0 / qcomp=0.60 / qpmin=0 / qpmax=69 / qpstep=4 / cplxblur=20.0 / qblur=0.5 / vbv_maxrate=20000 / vbv_bufsize=25000 / nal_hrd=none / filler=0 / ip_ratio=1.40 / aq=1:1.00
Default : Yes
Forced : No
Color range : Limited
Color primaries : BT.709
Transfer characteristics : BT.709
Matrix coefficients : BT.709
Statistics Tags Issue : mkvmerge v38.0.0 ('The Silent Type') 64-bit 2020-02-05 22:20:36 / mkvmerge v38.0.0 ('The Silent Type') 64-bit 2020-02-05 22:20:36 / UTC 2020-02-05T09:16:13Z
FromStats_BitRate : 5757389
FromStats_Duration : 02:14:58.466000000
FromStats_FrameCount : 194169
FromStats_StreamSize : 5828252685

Audio
ID : 2
Format : AC-3
Format/Info : Audio Coding 3
Format settings, Endianness : Big
Codec ID : A_AC3
Duration : 2 h 14 min
Bit rate mode : Constant
Bit rate : 448 kb/s
Channel(s) : 6 channels
Channel positions : Front: L C R, Side: L R, LFE
Sampling rate : 48.0 kHz
Frame rate : 31.250 FPS (1536 SPF)
Bit depth : 16 bits
Compression mode : Lossy
Stream size : 433 MiB (7%)
Title : Surround
Language : Spanish
Service kind : Complete Main
Default : Yes
Forced : No
Statistics Tags Issue : mkvmerge v38.0.0 ('The Silent Type') 64-bit 2020-02-05 22:20:36 / mkvmerge v38.0.0 ('The Silent Type') 64-bit 2020-02-05 22:20:36 / UTC 2020-02-05T09:16:13Z
FromStats_BitRate : 448000
FromStats_Duration : 02:14:58.464000000
FromStats_FrameCount : 253077
FromStats_StreamSize : 453513984

Text
ID : 3
Format : UTF-8
Codec ID : S_TEXT/UTF8
Codec ID/Info : UTF-8 Plain Text
Title : Forced
Language : English
Default : Yes
Forced : Yes
Statistics Tags Issue : mkvmerge v38.0.0 ('The Silent Type') 64-bit 2020-02-05 22:20:36 / mkvmerge v38.0.0 ('The Silent Type') 64-bit 2020-02-05 22:20:36 / UTC 2020-02-05T09:16:13Z
FromStats_BitRate : 30
FromStats_Duration : 02:08:11.768000000
FromStats_FrameCount : 886
FromStats_StreamSize : 29755

Menu
00:00:00.000 : :Chapter 1
00:07:22.275 : :Chapter 2
00:13:24.345 : :Chapter 3
00:22:00.402 : :Chapter 4
00:27:32.776 : :Chapter 5
00:31:54.162 : :Chapter 6
00:36:46.496 : :Chapter 7
00:41:03.252 : :Chapter 8
00:46:49.640 : :Chapter 9
00:52:20.471 : :Chapter 10
01:02:38.213 : :Chapter 11
01:08:15.633 : :Chapter 12
01:13:58.225 : :Chapter 13
01:17:57.131 : :Chapter 14
01:23:30.756 : :Chapter 15
01:25:57.152 : :Chapter 16
01:29:22.315 : :Chapter 17
01:31:57.929 : :Chapter 18
01:35:14.709 : :Chapter 19
01:37:50.698 : :Chapter 20
01:42:25.848 : :Chapter 21
01:47:08.589 : :Chapter 22
01:51:51.830 : :Chapter 23
01:58:13.086 : :Chapter 24
02:03:42.582 : :Chapter 25





Roma (2018)


Roma (2018)


Roma (2018)


Roma (2018)


Roma (2018)