Ross Kemp Behind Bars – Inside Barlinnie (2017)

Posted By: notbanned
Ross Kemp Behind Bars – Inside Barlinnie (2017)

Ross Kemp Behind Bars – Inside Barlinnie (2017)
HDTV | 1280x720 | .MKV/AVC @ 1651 Kbps | 47 min 45 s | 630 MiB
Audio: English AC3 192 kbps, 2 channels | Subs: None
Genre: Documentary

With unprecedented access, Ross Kemp immerses himself in prison life at the sharp end in HMP Barlinnie in Glasgow. The iconic prison has a formidable reputation and has served the city for over 130 years. With privileged and exclusive access to every part of the jail, Ross discovers what it is really like to be an inmate and how prison officers handle the violence, homemade weapons and drugs, which cast a shadow across daily life behind bars. He discovers what it is like to be a lifer, meets a prisoner preparing for freedom and with trepidation, enters the wing of the prison housing sex offenders, the fastest growing group of inmates in the prison system today.


General
Unique ID : 9213372261922072431750282040293154031 (0x6EE6E52EC3FC6258749DEDD2D635CEF)
Complete name : Ross.Kemp.Behind.Bars.Inside.Barlinnie.2017.720p.mkv
Format : Matroska
Format version : Version 4 / Version 2
File size : 630 MiB
Duration : 47 min 45 s
Overall bit rate : 1 845 kb/s

Video
ID : 1
Format : AVC
Format/Info : Advanced Video Codec
Format profile : High@L4.1
Format settings, CABAC : Yes
Format settings, ReFrames : 5 frames
Codec ID : V_MPEG4/ISO/AVC
Duration : 47 min 45 s
Bit rate : 1 651 kb/s
Width : 1 280 pixels
Height : 720 pixels
Display aspect ratio : 16:9
Frame rate mode : Constant
Frame rate : 25.000 FPS
Color space : YUV
Chroma subsampling : 4:2:0
Bit depth : 8 bits
Scan type : Progressive
Bits/(Pixel*Frame) : 0.072
Stream size : 564 MiB (89%)
Writing library : x264 core 152 r2851 ba24899
Encoding settings : cabac=1 / ref=5 / deblock=1:0:0 / analyse=0x3:0x113 / me=hex / subme=9 / psy=1 / psy_rd=1.00:0.00 / mixed_ref=1 / me_range=16 / chroma_me=1 / trellis=2 / 8x8dct=1 / cqm=0 / deadzone=21,11 / fast_pskip=1 / chroma_qp_offset=-2 / threads=12 / lookahead_threads=1 / sliced_threads=0 / nr=0 / decimate=1 / interlaced=0 / bluray_compat=0 / constrained_intra=0 / bframes=3 / b_pyramid=2 / b_adapt=1 / b_bias=0 / direct=3 / weightb=1 / open_gop=0 / weightp=2 / keyint=250 / keyint_min=25 / scenecut=40 / intra_refresh=0 / rc_lookahead=50 / rc=crf / mbtree=1 / crf=20.0 / qcomp=0.60 / qpmin=0 / qpmax=69 / qpstep=4 / ip_ratio=1.40 / aq=1:1.00
Language : English
Default : Yes
Forced : No
Color range : Limited
Matrix coefficients : BT.709

Audio
ID : 2
Format : AC-3
Format/Info : Audio Coding 3
Format settings, Endianness : Big
Codec ID : A_AC3
Duration : 47 min 44 s
Bit rate mode : Constant
Bit rate : 192 kb/s
Channel(s) : 2 channels
Channel positions : Front: L R
Sampling rate : 48.0 kHz
Frame rate : 31.250 FPS (1536 spf)
Bit depth : 16 bits
Compression mode : Lossy
Delay relative to video : 4 ms
Stream size : 65.6 MiB (10%)
Language : English
Service kind : Complete Main
Default : Yes
Forced : No


Screenshots:

Ross Kemp Behind Bars – Inside Barlinnie (2017)

Ross Kemp Behind Bars – Inside Barlinnie (2017)

Ross Kemp Behind Bars – Inside Barlinnie (2017)