Star Trek VIII: First Contact / Звездный путь 8: Первый контакт (1996) [ReUp]

Posted By: RSU75
Star Trek VIII: First Contact / Звездный путь 8: Первый контакт (1996) [ReUp]

Star Trek VIII: First Contact / Звездный путь 8: Первый контакт (1996)
BDRip | MKV | AVC 1280x544, ~ 4.0 Mbps | 1hr 50mn | 4.75 GB
English \ French: AC3, 6 ch, 640 kbps; English(Commentary x 3): AC3, 2 ch, 224 kbps; Russian: AC3, 2 ch, 192 kbps
Subtitles: English, Russian
Genre: Action | Adventure | Sci-Fi
IMDB Rating: 7.6/10 (84.854 votes)


Subtitles in other languages: subtitleseeker.com


Director: Jonathan Frakes
Writers: Gene Roddenberry (television series Star Trek), Rick Berman (story)
Stars: Patrick Stewart, Jonathan Frakes, Brent Spiner

The time is the 24th century and the ship is the newly-commissioned Enterprise-E. Its captain, Jean-Luc Picard, has been ordered not to interfere in a battle between a Borg Cube and ships from the Federation. However, seeing the Federation is about to lose, Picard ignore his orders and takes command of the defending fleet. With his knowledge of the Cube's weak spot, they destroy it. However, a small part of it escapes and plots a course directly for Earth. The Enterprise chases it and enters a time distortion created by the Borg. They end up in the mid-21st century, and their only chance of stopping the Borg from assimilating Earth is to help Zefram Cochrane make his famous first faster-than-light travel to the stars.


Название: Звездный путь VIII: Первый контакт
Оригинальное название: Star Trek VIII: First Contact
Год выпуска: 1996
Жанр: Фантастика, приключения
Выпущено: США
Режиссер: Джонатан Фрейкс
В ролях: Патрик Стюарт, Джонатан Фрейкс, Брент Спайнер, ЛеВар Бёртон, Майкл Дорн, Гейтс МакФэдден, Марина Сиртис

О фильме: Восьмая часть всемирно известного сериала о приключениях бесстрашных звездолетчиков в далеком будущем. Посланцы враждебной инопланетной цивилизации проникают в прошлое, и первый контакт человечества с внеземным разумом, способный положить начало новой космической эры, оказывается под угрозой срыва.
Перед экипажем легендарного космического корабля «Энтерпрайз» и его мужественным капитаном Пикардом стоит трудная и опасная задача — помешать осуществлению планов врага и спасти будущее Земли.

Русский перевод: Многоголосый закадровый, SDI Media



General
Unique ID : 176827052964164385483138026420061005655 (0x8507A6D11A1C2A169F2E5F4C9DA6E757)
Complete name : D:\ST8.FirstContact.7p.All1.mkv
Format : Matroska
Format version : Version 4 / Version 2
File size : 4.75 GiB
Duration : 1h 50mn
Overall bit rate : 6 146 Kbps
Movie name : Avaxhome.cc
Encoded date : UTC 2014-06-12 02:47:25
Writing application : mkvmerge v6.8.0 ('Theme for Great Cities') 32bit built on Mar 2 2014 21:27:07
Writing library : libebml v1.3.0 + libmatroska v1.4.1

Video
ID : 1
Format : AVC
Format/Info : Advanced Video Codec
Format profile : High@L4.0
Format settings, CABAC : Yes
Format settings, ReFrames : 9 frames
Codec ID : V_MPEG4/ISO/AVC
Duration : 1h 50mn
Bit rate : 4 000 Kbps
Width : 1 280 pixels
Height : 544 pixels
Display aspect ratio : 2.35:1
Frame rate mode : Constant
Frame rate : 23.976 fps
Color space : YUV
Chroma subsampling : 4:2:0
Bit depth : 8 bits
Scan type : Progressive
Bits/(Pixel*Frame) : 0.240
Stream size : 3.00 GiB (63%)
Title : Star.Trek.(VIII).First.Contact.BDRip.720p
Writing library : x264 core 132 r2309 3b1f1f7
Encoding settings : cabac=1 / ref=9 / deblock=1:-1:-1 / analyse=0x3:0x133 / me=umh / subme=11 / psy=1 / psy_rd=1.00:0.00 / mixed_ref=1 / me_range=32 / chroma_me=1 / trellis=2 / 8x8dct=1 / cqm=0 / deadzone=21,11 / fast_pskip=0 / chroma_qp_offset=-2 / threads=6 / lookahead_threads=1 / sliced_threads=0 / nr=0 / decimate=1 / interlaced=0 / bluray_compat=0 / constrained_intra=0 / bframes=8 / b_pyramid=2 / b_adapt=2 / b_bias=0 / direct=3 / weightb=1 / open_gop=0 / weightp=2 / keyint=240 / keyint_min=23 / scenecut=40 / intra_refresh=0 / rc_lookahead=60 / rc=2pass / mbtree=1 / bitrate=4000 / ratetol=1.0 / qcomp=0.70 / qpmin=0 / qpmax=69 / qpstep=4 / cplxblur=20.0 / qblur=0.5 / ip_ratio=1.40 / aq=1:1.00
Language : English
Default : Yes
Forced : No

Audio #1
ID : 2
Format : AC-3
Format/Info : Audio Coding 3
Mode extension : CM (complete main)
Format settings, Endianness : Big
Codec ID : A_AC3
Duration : 1h 50mn
Bit rate mode : Constant
Bit rate : 640 Kbps
Channel(s) : 6 channels
Channel positions : Front: L C R, Side: L R, LFE
Sampling rate : 48.0 KHz
Bit depth : 16 bits
Compression mode : Lossy
Stream size : 507 MiB (10%)
Language : English
Default : Yes
Forced : No

Audio #2
ID : 3
Format : AC-3
Format/Info : Audio Coding 3
Format profile : Dolby Digital
Mode extension : CM (complete main)
Format settings, Endianness : Big
Codec ID : A_AC3
Duration : 1h 50mn
Bit rate mode : Constant
Bit rate : 192 Kbps
Channel(s) : 2 channels
Channel positions : Front: L R
Sampling rate : 48.0 KHz
Bit depth : 16 bits
Compression mode : Lossy
Stream size : 152 MiB (3%)
Title : SDI Media AC3 2.0 192 Kbps
Language : Russian
Default : No
Forced : No

Audio #3
ID : 6
Format : AC-3
Format/Info : Audio Coding 3
Mode extension : CM (complete main)
Format settings, Endianness : Big
Codec ID : A_AC3
Duration : 1h 50mn
Bit rate mode : Constant
Bit rate : 640 Kbps
Channel(s) : 6 channels
Channel positions : Front: L C R, Side: L R, LFE
Sampling rate : 48.0 KHz
Bit depth : 16 bits
Compression mode : Lossy
Stream size : 507 MiB (10%)
Language : French
Default : No
Forced : No

Audio #4
ID : 7
Format : AC-3
Format/Info : Audio Coding 3
Format profile : Dolby Digital
Mode extension : CM (complete main)
Format settings, Endianness : Big
Codec ID : A_AC3
Duration : 1h 50mn
Bit rate mode : Constant
Bit rate : 224 Kbps
Channel(s) : 2 channels
Channel positions : Front: L R
Sampling rate : 48.0 KHz
Bit depth : 16 bits
Compression mode : Lossy
Stream size : 177 MiB (4%)
Language : English
Default : No
Forced : No

Audio #5
ID : 8
Format : AC-3
Format/Info : Audio Coding 3
Format profile : Dolby Digital
Mode extension : CM (complete main)
Format settings, Endianness : Big
Codec ID : A_AC3
Duration : 1h 50mn
Bit rate mode : Constant
Bit rate : 224 Kbps
Channel(s) : 2 channels
Channel positions : Front: L R
Sampling rate : 48.0 KHz
Bit depth : 16 bits
Compression mode : Lossy
Stream size : 177 MiB (4%)
Language : English
Default : No
Forced : No

Audio #6
ID : 9
Format : AC-3
Format/Info : Audio Coding 3
Format profile : Dolby Digital
Mode extension : CM (complete main)
Format settings, Endianness : Big
Codec ID : A_AC3
Duration : 1h 50mn
Bit rate mode : Constant
Bit rate : 224 Kbps
Channel(s) : 2 channels
Channel positions : Front: L R
Sampling rate : 48.0 KHz
Bit depth : 16 bits
Compression mode : Lossy
Stream size : 177 MiB (4%)
Language : English
Default : No
Forced : No

Text #1
ID : 4
Format : UTF-8
Codec ID : S_TEXT/UTF8
Codec ID/Info : UTF-8 Plain Text
Language : English
Default : No
Forced : No

Text #2
ID : 5
Format : UTF-8
Codec ID : S_TEXT/UTF8
Codec ID/Info : UTF-8 Plain Text
Language : Russian
Default : No
Forced : No

Menu
00:00:00.000 : en:00:00:00.000
00:02:48.668 : en:00:02:48.668
00:04:45.243 : en:00:04:45.243
00:07:30.783 : en:00:07:30.783
00:11:52.628 : en:00:11:52.628
00:13:54.917 : en:00:13:54.917
00:17:21.957 : en:00:17:21.957
00:22:25.635 : en:00:22:25.635
00:24:24.838 : en:00:24:24.838
00:25:52.884 : en:00:25:52.884
00:27:08.752 : en:00:27:08.752
00:28:10.063 : en:00:28:10.063
00:31:14.289 : en:00:31:14.289
00:37:50.935 : en:00:37:50.935
00:39:16.353 : en:00:39:16.353
00:43:52.171 : en:00:43:52.171
00:46:13.604 : en:00:46:13.604
00:49:17.579 : en:00:49:17.579
00:55:11.850 : en:00:55:11.850
00:58:20.121 : en:00:58:20.121
01:01:31.729 : en:01:01:31.729
01:05:16.287 : en:01:05:16.287
01:13:52.261 : en:01:13:52.261
01:16:24.079 : en:01:16:24.079
01:23:20.704 : en:01:23:20.704
01:25:36.548 : en:01:25:36.548
01:28:45.153 : en:01:28:45.153
01:33:33.774 : en:01:33:33.774
01:37:31.637 : en:01:37:31.637
01:39:59.827 : en:01:39:59.827
01:45:34.911 : en:01:45:34.911



Screenshots (click to enlarge to original size):

Star Trek VIII: First Contact / Звездный путь 8: Первый контакт (1996) [ReUp]

Star Trek VIII: First Contact / Звездный путь 8: Первый контакт (1996) [ReUp]

Star Trek VIII: First Contact / Звездный путь 8: Первый контакт (1996) [ReUp]

Star Trek VIII: First Contact / Звездный путь 8: Первый контакт (1996) [ReUp]

Star Trek VIII: First Contact / Звездный путь 8: Первый контакт (1996) [ReUp]



–––––––––––––––––––––––––––––––––––––––-
>>> "Sci-Fi" <<< OR >>> "Star Trek" <<<
–––––––––––––––––––––––––––––––––––––––-
>>> Visit Blog RSU75 Here <<<
–––––––––––––––––––––––––––––––––––––––-