Salt (2010) [Theatrical Cut]

Posted By: Without
2160p (4k UHD) / BluRay Remux IMDb
Salt (2010) [Theatrical Cut]

Salt (2010)
4K UHD Remux | MKV | 3840x2160 | HEVC@56.3 Mb/s | English Atmos / TrueHD@5135 kb/s Kbps (8 ch)
English AC3@640 Kbps (6 ch) + AC3@192 Kbps (Commentary) (2 ch) | 1 h 40 min | 43.7 GB
Subs: English, French, Spanish
Genre: Action, Crime, Mystery

A CIA agent goes on the run after a defector accuses her of being a Russian spy.

IMDB - Nominated for 1 Oscar. Another 4 wins & 16 nominations.


General
Salt.2010.Theatrical.Cut.UHD.BluRay.2160p.TrueHD.Atmos.7.1.HEVC.REMUX-FraMeSToR\Salt.2010.Theatrical.Cut.UHD.BluRay.2160p.TrueHD.Atmos.7.1.HEVC.REMUX-FraMeSToR.mkv
Format : Matroska
Format version : Version 4 / Version 2
File size : 43.7 GiB
Duration : 1 h 40 min
Overall bit rate mode : Variable
Overall bit rate : 62.6 Mb/s
Movie name : Salt (2010) 4K
Encoded date : UTC 2017-12-12 16:14:31
Writing application : mkvmerge v18.0.0 ('Apricity') 64-bit
Writing library : libebml v1.3.5 + libmatroska v1.4.8

Video
ID : 1
Format : HEVC
Format/Info : High Efficiency Video Coding
Format profile : Main 10@L5.1@High
Codec ID : V_MPEGH/ISO/HEVC
Duration : 1 h 39 min
Bit rate : 56.3 Mb/s
Width : 3 840 pixels
Height : 2 160 pixels
Display aspect ratio : 16:9
Frame rate mode : Constant
Frame rate : 23.976 (24000/1001) FPS
Color space : YUV
Chroma subsampling : 4:2:0 (Type 2)
Bit depth : 10 bits
Bits/(Pixel*Frame) : 0.283
Stream size : 39.4 GiB (90%)
Default : Yes
Forced : No
Color range : Limited
Color primaries : BT.2020
Transfer characteristics : SMPTE ST 2084
Matrix coefficients : BT.2020 non-constant
Mastering display color primaries : R: x=0.680000 y=0.320000, G: x=0.265000 y=0.690000, B: x=0.150000 y=0.060000, White point: x=0.312700 y=0.329000
Mastering display luminance : min: 0.0050 cd/m2, max: 4000.0000 cd/m2
Maximum Content Light Level : 1281 cd/m2
Maximum Frame-Average Light Level : 1087 cd/m2

Audio #1
ID : 2
Format : Atmos / TrueHD
Codec ID : A_TRUEHD
Duration : 1 h 39 min
Bit rate mode : Variable
Bit rate : 5 135 kb/s
Maximum bit rate : 8 778 kb/s
Channel(s) : Object Based / 8 channels
Channel positions : Object Based / Front: L C R, Side: L R, Back: L R, LFE
Sampling rate : / 48.0 kHz
Frame rate : 1 200.000 FPS (40 spf)
Compression mode : Lossless
Stream size : 3.59 GiB (8%)
Title : TrueHD Atmos 7.1
Language : English
Default : Yes
Forced : No

Audio #2
ID : 3
Format : AC-3
Format/Info : Audio Coding 3
Mode extension : CM (complete main)
Format settings, Endianness : Big
Codec ID : A_AC3
Duration : 1 h 40 min
Bit rate mode : Constant
Bit rate : 640 kb/s
Channel(s) : 6 channels
Channel positions : Front: L C R, Side: L R, LFE
Sampling rate : 48.0 kHz
Frame rate : 31.250 FPS (1536 spf)
Bit depth : 16 bits
Compression mode : Lossy
Stream size : 458 MiB (1%)
Title : AC-3 5.1
Language : English
Default : No
Forced : No

Audio #3
ID : 4
Format : AC-3
Format/Info : Audio Coding 3
Format profile : Dolby Digital
Mode extension : CM (complete main)
Format settings, Endianness : Big
Codec ID : A_AC3
Duration : 1 h 40 min
Bit rate mode : Constant
Bit rate : 192 kb/s
Channel(s) : 2 channels
Channel positions : Front: L R
Sampling rate : 48.0 kHz
Frame rate : 31.250 FPS (1536 spf)
Bit depth : 16 bits
Compression mode : Lossy
Stream size : 137 MiB (0%)
Title : Commentary by director Phillip Noyce
Language : English
Default : No
Forced : No

Text #1
ID : 5
Format : PGS
Codec ID : S_HDMV/PGS
Codec ID/Info : Picture based subtitle format used on BDs/HD-DVDs
Duration : 1 h 30 min
Bit rate : 27.1 kb/s
Count of elements : 1850
Stream size : 17.6 MiB (0%)
Title : English
Language : English
Default : No
Forced : No

Text #2
ID : 6
Format : PGS
Codec ID : S_HDMV/PGS
Codec ID/Info : Picture based subtitle format used on BDs/HD-DVDs
Duration : 1 h 35 min
Bit rate : 20.2 kb/s
Count of elements : 2094
Stream size : 13.8 MiB (0%)
Title : English (SDH)
Language : English
Default : No
Forced : No

Text #3
ID : 7
Format : PGS
Codec ID : S_HDMV/PGS
Codec ID/Info : Picture based subtitle format used on BDs/HD-DVDs
Duration : 1 h 39 min
Bit rate : 20.5 kb/s
Count of elements : 1851
Stream size : 14.5 MiB (0%)
Title : French
Language : French
Default : No
Forced : No

Text #4
ID : 8
Format : PGS
Codec ID : S_HDMV/PGS
Codec ID/Info : Picture based subtitle format used on BDs/HD-DVDs
Duration : 1 h 30 min
Bit rate : 25.4 kb/s
Count of elements : 1919
Stream size : 16.5 MiB (0%)
Title : Spanish (Latin American)
Language : Spanish
Default : No
Forced : No

Text #5
ID : 9
Format : PGS
Codec ID : S_HDMV/PGS
Codec ID/Info : Picture based subtitle format used on BDs/HD-DVDs
Duration : 1 h 32 min
Bit rate : 64.6 kb/s
Count of elements : 3214
Stream size : 42.8 MiB (0%)
Title : English (Commentary)
Language : English
Default : No
Forced : No

Text #6
ID : 10
Format : PGS
Codec ID : S_HDMV/PGS
Codec ID/Info : Picture based subtitle format used on BDs/HD-DVDs
Duration : 1 h 32 min
Bit rate : 62.3 kb/s
Count of elements : 3262
Stream size : 41.3 MiB (0%)
Title : Spanish (Commentary Latin American)
Language : Spanish
Default : No
Forced : No

Menu
00:00:00.000 : en:Chapter 1
00:07:07.344 : en:Chapter 2
00:10:04.896 : en:Chapter 3
00:16:43.544 : en:Chapter 4
00:24:37.726 : en:Chapter 5
00:30:45.302 : en:Chapter 6
00:37:44.053 : en:Chapter 7
00:42:38.306 : en:Chapter 8
00:48:35.871 : en:Chapter 9
00:54:57.294 : en:Chapter 10
01:01:07.330 : en:Chapter 11
01:05:55.577 : en:Chapter 12
01:12:07.782 : en:Chapter 13
01:19:27.012 : en:Chapter 14
01:26:07.996 : en:Chapter 15
01:32:03.810 : en:Chapter 16


Screenshots

Salt (2010) [Theatrical Cut]

Salt (2010) [Theatrical Cut]

Salt (2010) [Theatrical Cut]

Salt (2010) [Theatrical Cut]

Salt (2010) [Theatrical Cut]

Salt (2010) [Theatrical Cut]


Come Visit My Blog (•‿•)