Subcategories

Searching for Sugar Man (2012) [Repost]

Posted By: Without
Searching for Sugar Man (2012) [Repost]

Searching for Sugar Man (2012)
BDRip 1080p | MKV | 1920x1080 | AVC@8266 kb/s | English DTS@768 kb/s
6 channels | 1 h 26 min | 5.45 GB
Genre: Documentary, Biography, Music

Two South Africans set out to discover what happened to their unlikely musical hero, the mysterious 1970s rock n roller, Rodriguez.

IMDB - Won 1 Oscar. Another 38 wins & 30 nominations


General
Searching.for.Sugar.Man.2012.LIMITED.1080p.BluRay.X264-7SinS\Searching.for.Sugar.Man.2012.LIMITED.1080p.BluRay.X264-7SinS.mkv
Format : Matroska
Format version : Version 2
File size : 5.45 GiB
Duration : 1 h 26 min
Overall bit rate : 9 030 kb/s
Encoded date : UTC 2012-12-28 10:37:46
Writing application : mkvmerge v5.8.0 ('No Sleep / Pillow') built on Sep 2 2012 15:37:04
Writing library : libebml v1.2.3 + libmatroska v1.3.0

Video
ID : 1
Format : AVC
Format/Info : Advanced Video Codec
Format profile : High@L4.1
Format settings, CABAC : Yes
Format settings, ReFrames : 4 frames
Codec ID : V_MPEG4/ISO/AVC
Duration : 1 h 26 min
Bit rate : 8 266 kb/s
Width : 1 920 pixels
Height : 1 080 pixels
Display aspect ratio : 16:9
Frame rate mode : Constant
Frame rate : 23.976 (24000/1001) FPS
Original frame rate : 23.976 (23976/1000) FPS
Color space : YUV
Chroma subsampling : 4:2:0
Bit depth : 8 bits
Scan type : Progressive
Bits/(Pixel*Frame) : 0.166
Stream size : 4.88 GiB (90%)
Writing library : x264 core 129 r2230 1cffe9f
Encoding settings : cabac=1 / ref=4 / deblock=1:0:0 / analyse=0x3:0x133 / me=umh / subme=7 / psy=1 / psy_rd=1.00:0.00 / mixed_ref=1 / me_range=16 / chroma_me=1 / trellis=1 / 8x8dct=1 / cqm=0 / deadzone=21,11 / fast_pskip=0 / chroma_qp_offset=-2 / threads=12 / lookahead_threads=2 / sliced_threads=0 / nr=0 / decimate=1 / interlaced=0 / bluray_compat=0 / constrained_intra=0 / bframes=3 / b_pyramid=2 / b_adapt=2 / b_bias=0 / direct=3 / weightb=1 / open_gop=0 / weightp=2 / keyint=250 / keyint_min=23 / scenecut=40 / intra_refresh=0 / rc_lookahead=50 / rc=2pass / mbtree=1 / bitrate=8266 / ratetol=1.0 / qcomp=0.60 / qpmin=0 / qpmax=69 / qpstep=4 / cplxblur=20.0 / qblur=0.5 / ip_ratio=1.40 / aq=1:1.00
Language : English
Default : Yes
Forced : No

Audio
ID : 2
Format : DTS
Format/Info : Digital Theater Systems
Mode : 16
Format settings, Endianness : Big
Codec ID : A_DTS
Duration : 1 h 26 min
Bit rate mode : Constant
Bit rate : 768 kb/s
Channel(s) : 6 channels
Channel positions : Front: L C R, Side: L R, LFE
Sampling rate : 48.0 kHz
Frame rate : 93.750 FPS (512 spf)
Bit depth : 24 bits
Compression mode : Lossy
Stream size : 475 MiB (9%)
Language : English
Default : Yes
Forced : No

Menu
00:00:00.000 : en:00:00:00.000
00:07:03.298 : en:00:07:03.298
00:14:26.449 : en:00:14:26.449
00:21:29.163 : en:00:21:29.163
00:28:01.930 : en:00:28:01.930
00:35:33.506 : en:00:35:33.506
00:42:45.772 : en:00:42:45.772
00:49:10.656 : en:00:49:10.656
00:56:23.589 : en:00:56:23.589
01:02:50.892 : en:01:02:50.892
01:10:08.830 : en:01:10:08.830
01:17:17.258 : en:01:17:17.258


BDRip 1080p Screenshots

Searching for Sugar Man (2012) [Repost]

Searching for Sugar Man (2012) [Repost]

Searching for Sugar Man (2012) [Repost]

Searching for Sugar Man (2012) [Repost]

Searching for Sugar Man (2012) [Repost]

Searching for Sugar Man (2012) [Repost]


Come Visit My Blog (•‿•)