Channel 4 - Secrets of China's Forbidden City (2017)

Posted By: notbanned
Channel 4 - Secrets of China's Forbidden City (2017)

Channel 4 - Secrets of China's Forbidden City (2017)
HDTV | 1920x1080 | .MKV/AVC @ 4219 Kbps | 46 min 43 s | 1.42 GiB
Audio: English AAC 124 kbps, 2 channels | Subs: None
Genre: Documentary

The world's largest palace, the Forbidden City, stands at the heart of Chinese history, as the home to the emperors for 600 years. And it's full of secrets. This documentary goes behind closed doors to explore this extraordinary palace-city and to discover the clues to its creation. Unique access to the latest conservation works uncovers evidence hidden in locked halls and high in the mighty roofs, revealing a ruler who governed by fear but also created an exquisite and enormous work of art and technology. Tests on the paints reveal trade with Europe, and the programme experiments with an ice road to move an entire marble stairway. And another huge experiment tests the Forbidden City to destruction, as a giant scale model is placed on a seismic shake table to replicate the earthquakes that shook Beijing and to explore the design secrets that enabled the Forbidden City to stand up to the greatest shocks on earth.


General
Unique ID : 237244115910107339958759579215991767604 (0xB27B8E0090341697A5F2C9FDB50D8234)
Complete name : Secrets.Of.Chinas.Forbidden.City.1080p.mkv
Format : Matroska
Format version : Version 4 / Version 2
File size : 1.42 GiB
Duration : 46 min 43 s
Overall bit rate : 4 346 kb/s

Video
ID : 1
Format : AVC
Format/Info : Advanced Video Codec
Format profile : High@L4
Format settings, CABAC : Yes
Format settings, ReFrames : 4 frames
Codec ID : V_MPEG4/ISO/AVC
Duration : 46 min 43 s
Bit rate : 4 219 kb/s
Width : 1 920 pixels
Height : 1 080 pixels
Display aspect ratio : 16:9
Frame rate mode : Constant
Frame rate : 25.000 FPS
Standard : Component
Color space : YUV
Chroma subsampling : 4:2:0
Bit depth : 8 bits
Scan type : Progressive
Bits/(Pixel*Frame) : 0.081
Stream size : 1.38 GiB (97%)
Language : English
Default : Yes
Forced : No
Color range : Limited
Color primaries : BT.709
Transfer characteristics : BT.709
Matrix coefficients : BT.709

Audio
ID : 2
Format : AAC
Format/Info : Advanced Audio Codec
Format profile : LC
Codec ID : A_AAC
Duration : 46 min 43 s
Bit rate : 124 kb/s
Channel(s) : 2 channels
Channel positions : Front: L R
Sampling rate : 48.0 kHz
Frame rate : 46.875 FPS (1024 spf)
Compression mode : Lossy
Stream size : 41.4 MiB (3%)
Language : English
Default : Yes
Forced : No


Screenshots:

Channel 4 - Secrets of China's Forbidden City (2017)

Channel 4 - Secrets of China's Forbidden City (2017)

Channel 4 - Secrets of China's Forbidden City (2017)

Channel 4 - Secrets of China's Forbidden City (2017)