Subcategories

Channel 4 - Sex BC: Greece (2002)

Posted By: Tutorial
Channel 4 - Sex BC: Greece (2002)

Channel 4 - Sex BC: Greece (2002)
DVDRip | 640 x 368 | .AVI/XviD @ 944 Kbps | 45 min 19 s | 350 MB
Audio: English MP3 128 Kbps, 2 channels | Subs: None
Genre: Documentary, History

aka Sex Lives of The Ancients. Sex BC is a documentary, dramatised in part, in which the sexual behaviours of prehistoric peoples is brought out of the closet, so to speak.
From the Ice age to the early Greek civilisations this program shows how sex has not always been the taboo subject it is today, indeed in Ancient Egyptian times sex was a religious requirement. Fertility was all.
This documentary is not at all "smutty" with the subject material being handled in an intelligent and educational fashion.

Related Documentaries:
History Channel - Sex in the Ancient World (HD) (2009)
History Channel - Sex in the Ancient World (2009)
Channel 4 - The Ancient World (2004)

General
Complete name : Sex.BC.Greece.2002.avi
Format : AVI
Format/Info : Audio Video Interleave
File size : 350 MiB
Duration : 45 min 19 s
Overall bit rate : 1 080 kb/s
Writing application : VirtualDubMod 1.5.4.1 (build 2178/release)
Writing library : VirtualDubMod build 2178/release

Video
ID : 0
Format : MPEG-4 Visual
Format profile : Advanced Simple@L5
Format settings, BVOP : 1
Format settings, QPel : No
Format settings, GMC : No warppoints
Format settings, Matrix : Custom
Codec ID : XVID
Codec ID/Hint : XviD
Duration : 45 min 19 s
Bit rate : 944 kb/s
Width : 640 pixels
Height : 368 pixels
Display aspect ratio : 1.739
Frame rate : 25.000 FPS
Color space : YUV
Chroma subsampling : 4:2:0
Bit depth : 8 bits
Scan type : Progressive
Compression mode : Lossy
Bits/(Pixel*Frame) : 0.160
Stream size : 306 MiB (87%)
Writing library : XviD 1.2.1 (UTC 2008-12-04)

Audio
ID : 1
Format : MPEG Audio
Format version : Version 1
Format profile : Layer 3
Mode : Joint stereo
Mode extension : MS Stereo
Codec ID : 55
Codec ID/Hint : MP3
Duration : 45 min 19 s
Bit rate mode : Constant
Bit rate : 128 kb/s
Channel(s) : 2 channels
Sampling rate : 48.0 kHz
Compression mode : Lossy
Stream size : 41.5 MiB (12%)
Alignment : Aligned on interleaves
Interleave, duration : 80 ms (2.00 video frames)
Interleave, preload duration : 504 ms
Writing library : LAME3.98r
Encoding settings : -m j -V 4 -q 2 -lowpass 17 -b 128
Screenshots

Channel 4 - Sex BC: Greece (2002)

Channel 4 - Sex BC: Greece (2002)

Channel 4 - Sex BC: Greece (2002)

Channel 4 - Sex BC: Greece (2002)

Welcome to my blog - daily update!

Channel 4 - Sex BC: Greece (2002)