BBC - Sex Map of Britain: Desperately Seeking Semen - Series 1 (2017)

Posted By: Tutorial
BBC - Sex Map of Britain: Desperately Seeking Semen - Series 1 (2017)

BBC - Sex Map of Britain: Desperately Seeking Semen - Series 1 (2017)
HDTV | 1280 x 720 | .MP4/AVC @ 2550 Kbps | 19 min 33 s | 380 MB
Audio: English AAC 160 Kbps, 2 channels | Subs: English
Genre: Documentary

For some couples unable to conceive naturally, IVF or sperm banks are not an option - but the internet offers them an alternative.
The film follows the couples as they collect their sperm and try to get pregnant, sometimes in unusual places. This film captures a series of memorable stories of couples trying to achieve their dream.
This extraordinary film offers a window on a little known world in which couples search online profiles and Facebook groups to find their perfect sperm donor, and the men fathering scores of children up and down the country explain why they donate.

General
Complete name : BBC.Sex.Map.of.Britain.Series.1.Desperately.Seeking.Semen.mp4
Format : MPEG-4
Format profile : Base Media
Codec ID : isom (isom)
File size : 380 MiB
Duration : 19 min 33 s
Overall bit rate mode : Variable
Overall bit rate : 2 714 kb/s
Encoded date : UTC 2017-09-01 11:15:45
Tagged date : UTC 2017-09-01 11:15:45
Writing application : My MP4Box GUI 0.6.0.6

Video
ID : 1
Format : AVC
Format/Info : Advanced Video Codec
Format profile : High@L4.1
Format settings, CABAC : Yes
Format settings, ReFrames : 4 frames
Codec ID : avc1
Codec ID/Info : Advanced Video Coding
Duration : 19 min 33 s
Bit rate : 2 550 kb/s
Maximum bit rate : 11.1 Mb/s
Width : 1 280 pixels
Height : 720 pixels
Display aspect ratio : 16:9
Frame rate mode : Variable
Frame rate : 25.000 FPS
Minimum frame rate : 8.333 FPS
Maximum frame rate : 25.000 FPS
Color space : YUV
Chroma subsampling : 4:2:0
Bit depth : 8 bits
Scan type : Progressive
Bits/(Pixel*Frame) : 0.111
Stream size : 357 MiB (94%)
Title : BBC.Sex.Map.of.Britain.Series.1.Desperately.Seeking.Semen.720p.HDTV.x264.AAC
Writing library : x264 core 130 r2273 b3065e6
Encoding settings : cabac=1 / ref=1 / deblock=1:0:0 / analyse=0x3:0x3 / me=dia / subme=1 / psy=1 / psy_rd=1.00:0.00 / mixed_ref=0 / me_range=16 / chroma_me=1 / trellis=0 / 8x8dct=1 / cqm=0 / deadzone=21,11 / fast_pskip=1 / chroma_qp_offset=0 / threads=6 / lookahead_threads=1 / sliced_threads=0 / nr=0 / decimate=1 / interlaced=0 / bluray_compat=0 / constrained_intra=0 / bframes=3 / b_pyramid=2 / b_adapt=1 / b_bias=0 / direct=1 / weightb=1 / open_gop=0 / weightp=1 / keyint=250 / keyint_min=25 / scenecut=40 / intra_refresh=0 / rc_lookahead=0 / rc=crf / mbtree=0 / crf=22.0 / qcomp=0.60 / qpmin=0 / qpmax=69 / qpstep=4 / vbv_maxrate=62500 / vbv_bufsize=78125 / crf_max=0.0 / nal_hrd=none / ip_ratio=1.40 / pb_ratio=1.30 / aq=1:1.00
Encoded date : UTC 2017-09-01 11:00:39
Tagged date : UTC 2017-09-01 11:15:50
Color range : Limited
Color primaries : BT.709
Transfer characteristics : BT.709
Matrix coefficients : BT.709

Audio
ID : 2
Format : AAC
Format/Info : Advanced Audio Codec
Format profile : LC
Codec ID : 40
Duration : 19 min 33 s
Bit rate mode : Variable
Bit rate : 160 kb/s
Maximum bit rate : 215 kb/s
Channel(s) : 2 channels
Channel positions : Front: L R
Sampling rate : 48.0 kHz
Frame rate : 46.875 FPS (1024 spf)
Compression mode : Lossy
Stream size : 22.4 MiB (6%)
Title : BBC.Sex.Map.of.Britain.Series.1.Desperately.Seeking.Semen.720p.HDTV.x264.AAC
Encoded date : UTC 2017-09-01 11:15:48
Tagged date : UTC 2017-09-01 11:15:50

Text
ID : 3
Format : Timed Text
Codec ID : tx3g
Duration : 19 min 0 s
Bit rate mode : Variable
Bit rate : 198 b/s
Stream size : 27.6 KiB (0%)
Title : BBC.Sex.Map.of.Britain.Series.1.Desperately.Seeking.Semen.720p.HDTV.x264.AAC
Forced : No
Encoded date : UTC 2017-09-01 11:15:50
Tagged date : UTC 2017-09-01 11:15:50
Screenshots

BBC - Sex Map of Britain: Desperately Seeking Semen - Series 1 (2017)

BBC - Sex Map of Britain: Desperately Seeking Semen - Series 1 (2017)

BBC - Sex Map of Britain: Desperately Seeking Semen - Series 1 (2017)

Welcome to my blog - daily update!

BBC - Sex Map of Britain: Desperately Seeking Semen - Series 1 (2017)