Please register here if you want to download anything!

If domain in your address bar is different from the list below
PLEASE LEAVE THAT SITE IMMEDIATELY
❗IT'S A DANGEROUS FAKE❗



Spicy Magazines for Men! ;-)

Shadow (2018)

Posted By: Tavaz
720p (HD) / BDRip IMDb
Shadow (2018)

Shadow (2018)
BDRip | MKV | 1280x536 | Chinese | H264 @ 6582 kbps | AC-3 @ 640 kbps | 1 h 55 min | 5.85 GiB
Subtitles: Vietnamese, Chinese, English
Genre: Action, Drama

About a king who attempts to lead his displaced people out of exile, and those who play a role in his mysterious plans.

31d087a3d04e4b18a8c82595544a1195.mkv (5.9 GB)



General
Unique ID : 49614090262691220549990164254042074570 (0x255353828062212ADEE2BE9B656BADCA)
Complete name : ./31d087a3d04e4b18a8c82595544a1195.mkv
Format : Matroska
Format version : Version 4 / Version 2
File size : 5.85 GiB
Duration : 1 h 55 min
Overall bit rate : 7 226 kb/s
Movie name : Shadow 2018 720p BluRay DD-EX 5.1 x264-DON
Encoded date : UTC 2019-05-17 09:00:34
Writing application : mkvmerge v33.1.0 ('Primrose') 64-bit
Writing library : libebml v1.3.7 + libmatroska v1.5.0
Cover : Yes
Attachments : Cover.png

Video
ID : 1
Format : AVC
Format/Info : Advanced Video Codec
Format profile : High@L4.1
Format settings : CABAC / 12 Ref Frames
Format settings, CABAC : Yes
Format settings, RefFrames : 12 frames
Codec ID : V_MPEG4/ISO/AVC
Duration : 1 h 55 min
Bit rate : 6 582 kb/s
Width : 1 280 pixels
Height : 536 pixels
Display aspect ratio : 2.40:1
Frame rate mode : Constant
Frame rate : 24.000 FPS
Color space : YUV
Chroma subsampling : 4:2:0
Bit depth : 8 bits
Scan type : Progressive
Bits/(Pixel*Frame) : 0.400
Stream size : 5.33 GiB (91%)
Title : Shadow 2018 720p BluRay DD-EX 5.1 x264-DON
Writing library : x264 core 157 r2867+103 0d6443f t_mod_Custom_2 [8-bit@all X86_64]
Encoding settings : cabac=1 / ref=12 / deblock=1:-3:-3 / analyse=0x3:0x133 / me=umh / subme=11 / psy=1 / fade_compensate=0.00 / psy_rd=1.00:0.00 / mixed_ref=1 / me_range=32 / chroma_me=1 / trellis=2 / 8x8dct=1 / cqm=0 / deadzone=21,11 / fast_pskip=0 / chroma_qp_offset=-2 / threads=12 / lookahead_threads=2 / sliced_threads=0 / nr=0 / decimate=0 / interlaced=0 / bluray_compat=0 / constrained_intra=0 / fgo=0 / bframes=9 / b_pyramid=2 / b_adapt=2 / b_bias=0 / direct=3 / weightb=1 / open_gop=0 / weightp=2 / keyint=250 / keyint_min=24 / scenecut=40 / intra_refresh=0 / rc_lookahead=60 / rc=crf / mbtree=0 / crf=14.3000 / qcomp=0.60 / qpmin=0:0:0 / qpmax=69:69:69 / qpstep=4 / vbv_maxrate=62500 / vbv_bufsize=78125 / crf_max=0.0 / nal_hrd=none / filler=0 / ip_ratio=1.30 / pb_ratio=1.20 / aq=3:0.85 / aq-sensitivity=10.00 / aq-factor=1.00:1.00:1.00 / aq2=0 / aq3=0 / zones=94280,113827,crf=13.5/120795,120934,crf=12.3/121029,121313,crf=11
Language : Chinese
Default : Yes
Forced : No
Color range : Limited
Matrix coefficients : BT.709

Audio
ID : 2
Format : AC-3
Format/Info : Audio Coding 3
Format settings, Endianness : Big
Codec ID : A_AC3
Duration : 1 h 55 min
Bit rate mode : Constant
Bit rate : 640 kb/s
Channel(s) : 6 channels
Channel positions : Front: L C R, Side: L R, LFE
Sampling rate : 48.0 kHz
Frame rate : 31.250 FPS (1536 SPF)
Bit depth : 16 bits
Compression mode : Lossy
Stream size : 531 MiB (9%)
Language : Chinese
Service kind : Complete Main
Default : Yes
Forced : No

Text #1
ID : 3
Format : UTF-8
Codec ID : S_TEXT/UTF8
Codec ID/Info : UTF-8 Plain Text
Duration : 1 h 44 min
Bit rate : 29 b/s
Count of elements : 1108
Stream size : 22.5 KiB (0%)
Language : English
Default : No
Forced : No

Text #2
ID : 4
Format : UTF-8
Codec ID : S_TEXT/UTF8
Codec ID/Info : UTF-8 Plain Text
Duration : 1 h 44 min
Bit rate : 23 b/s
Count of elements : 1108
Stream size : 17.8 KiB (0%)
Title : Simplified
Language : Chinese
Default : No
Forced : No

Text #3
ID : 5
Format : UTF-8
Codec ID : S_TEXT/UTF8
Codec ID/Info : UTF-8 Plain Text
Duration : 1 h 44 min
Bit rate : 23 b/s
Count of elements : 1108
Stream size : 17.8 KiB (0%)
Title : Traditional
Language : Chinese
Default : No
Forced : No

Text #4
ID : 6
Format : UTF-8
Codec ID : S_TEXT/UTF8
Codec ID/Info : UTF-8 Plain Text
Duration : 1 h 45 min
Bit rate : 43 b/s
Count of elements : 1049
Stream size : 33.5 KiB (0%)
Title : PDV
Language : Vietnamese
Default : No
Forced : No

Menu
00:00:00.000 : en:Chapter 01
00:12:37.708 : en:Chapter 02
00:24:52.208 : en:Chapter 03
00:32:30.167 : en:Chapter 04
00:41:19.667 : en:Chapter 05
00:50:24.875 : en:Chapter 06
01:05:11.958 : en:Chapter 07
01:18:52.375 : en:Chapter 08
01:23:47.125 : en:Chapter 09
01:27:02.958 : en:Chapter 10
01:33:11.375 : en:Chapter 11
01:47:58.417 : en:Chapter 12





Shadow (2018)


Shadow (2018)


Shadow (2018)


Shadow (2018)


Shadow (2018)