The Adventures of Sherlock Holmes and Dr. Watson. Ep8: The 20th Century Begins (1986)

Posted By: RSU75
SD / DVDRip IMDb
Great Coffee Cakes, Sticky Buns, Muffins & More: 200 Anytime Treats and Special Sweets for Morning to Midnight

The Adventures of Sherlock Holmes and Dr. Watson. Ep8: The 20th Century Begins (1986) / Priklyucheniya Sherloka Kholmsa i doktora Vatsona: Dvadtsatyy vek nachinaetsya / Приключения Шерлока Холмса и доктора Ватсона. Ч8: Двадцатый век начинается (1986)
DVDRip | MKV | 2 x ~ 1hr 17mn | AVC, ~1,9 Mbps | 720x576 | 2 x ~ 1.20 GB
Russian: AC3, 6 ch, 448 Kbps
Subtitles: English, Russian
Genre: Crime, Mystery
IMDB Rating: 8.1/10 (1.845 votes)
En.wikipedia.org


Director: Igor Maslennikov
Writers: Arthur Conan Doyle (stories)
Stars: Vasiliy Livanov, Vitali Solomin, Rina Zelyonaya, Boris Klyuev, Innokentiy Smoktunovskiy, Aleksandr Romantsov

Country: Soviet Union, Russia, Россия

The Adventures of Sherlock Holmes and Dr. Watson is a series of Soviet television films portraying Arthur Conan Doyle's fictional English detective, starting in 1979. They were directed by Igor Maslennikov. In 2006, Vasily Livanov became an Honorary MBE (Member of the Order of the British Empire) for his portrayal of Sherlock Holmes.

Part 8: The 20th Century Begins: The 20th century begins. Sherlock Holmes and Dr. Watson left the house No. 221b on Baker Street. Sherlock Holmes went to Sussex and started beekeeping. Dr. Watson got married and returned to medical practice. Mrs Hudson also left Baker Street, but ordered to create a Sherlock Holmes museum in the living room. Inspector Lestrade retired. However, in the new century there were new, much more dangerous criminals implicated in politics and international relations. Europe was on the verge of a major war.





General
Unique ID : 183556062929248785520558718079077855732 (0x8A179C9F60F61B158AEBDFEB04C631F4)
Complete name : L:\SherlockHolmes.Ru.Dr.E8.P1.The20thCenturyBegins\SherlockHolmes.Ru.Dr.E8.P1.The20thCenturyBegins.mkv
Format : Matroska
Format version : Version 4 / Version 2
File size : 1.28 GiB
Duration : 1 h 17 min
Overall bit rate : 2 372 kb/s
Movie name : Release RSU75
Encoded date : UTC 2018-03-03 11:40:27
Writing application : mkvmerge v6.6.0 ('The Edge Of The In Between') built on Dec 1 2013 17:55:00
Writing library : libebml v1.3.0 + libmatroska v1.4.1

Video
ID : 1
Format : AVC
Format/Info : Advanced Video Codec
Format profile : High@L3
Format settings : CABAC / 4 Ref Frames
Format settings, CABAC : Yes
Format settings, RefFrames : 4 frames
Codec ID : V_MPEG4/ISO/AVC
Duration : 1 h 17 min
Bit rate : 1 900 kb/s
Width : 720 pixels
Height : 576 pixels
Display aspect ratio : 4:3
Frame rate mode : Constant
Frame rate : 25.000 FPS
Standard : PAL
Color space : YUV
Chroma subsampling : 4:2:0
Bit depth : 8 bits
Scan type : Progressive
Bits/(Pixel*Frame) : 0.183
Stream size : 1.01 GiB (79%)
Writing library : x264 core 144 r2533 c8a773e
Encoding settings : cabac=1 / ref=4 / deblock=1:0:0 / analyse=0x3:0x113 / me=umh / subme=8 / psy=1 / psy_rd=1.00:0.00 / mixed_ref=1 / me_range=24 / chroma_me=1 / trellis=1 / 8x8dct=1 / cqm=0 / deadzone=21,11 / fast_pskip=1 / chroma_qp_offset=-2 / threads=3 / lookahead_threads=1 / sliced_threads=0 / nr=0 / decimate=1 / interlaced=0 / bluray_compat=0 / constrained_intra=0 / bframes=3 / b_pyramid=0 / b_adapt=2 / b_bias=0 / direct=3 / weightb=1 / open_gop=0 / weightp=2 / keyint=250 / keyint_min=25 / scenecut=40 / intra_refresh=0 / rc_lookahead=40 / rc=abr / mbtree=1 / bitrate=1900 / ratetol=1.0 / qcomp=0.60 / qpmin=10 / qpmax=51 / qpstep=4 / ip_ratio=1.41 / aq=1:1.00
Language : English
Default : Yes
Forced : No

Audio
ID : 2
Format : AC-3
Format/Info : Audio Coding 3
Format settings, Endianness : Big
Codec ID : A_AC3
Duration : 1 h 17 min
Bit rate mode : Constant
Bit rate : 448 kb/s
Channel(s) : 6 channels
Channel positions : Front: L C R, Side: L R, LFE
Sampling rate : 48.0 kHz
Frame rate : 31.250 FPS (1536 SPF)
Bit depth : 16 bits
Compression mode : Lossy
Delay relative to video : -40 ms
Stream size : 248 MiB (19%)
Language : Russian
Service kind : Complete Main
Default : Yes
Forced : No

Text #1
ID : 3
Format : VobSub
Muxing mode : zlib
Codec ID : S_VOBSUB
Codec ID/Info : Picture based subtitle format used on DVDs
Language : English
Default : Yes
Forced : No

Text #2
ID : 4
Format : VobSub
Muxing mode : zlib
Codec ID : S_VOBSUB
Codec ID/Info : Picture based subtitle format used on DVDs
Language : Russian
Default : No
Forced : No

Menu
00:00:00.080 : en:Chapter 01
00:08:34.400 : en:Chapter 02
00:13:38.720 : en:Chapter 03
00:16:02.480 : en:Chapter 04
00:21:45.080 : en:Chapter 05
00:24:35.600 : en:Chapter 06
00:28:51.440 : en:Chapter 07
00:40:14.720 : en:Chapter 08
00:48:02.840 : en:Chapter 09
00:55:59.000 : en:Chapter 10
01:06:22.640 : en:Chapter 11
01:13:49.760 : en:Chapter 12
01:15:54.560 : en:Chapter 13

––––––––––––––––––––––––––––––––––––––––-

General
Unique ID : 221671729840075357921161258278447543525 (0xA6C46C176AB2CC4BA9B7CA5F1AD8F4E5)
Complete name : L:\SherlockHolmes.Ru.Dr.E8.P2.The20thCenturyBegins\SherlockHolmes.Ru.Dr.E8.P2.The20thCenturyBegins.mkv
Format : Matroska
Format version : Version 4 / Version 2
File size : 1.18 GiB
Duration : 1 h 11 min
Overall bit rate : 2 370 kb/s
Movie name : Release RSU75
Encoded date : UTC 2018-03-03 12:19:55
Writing application : mkvmerge v6.6.0 ('The Edge Of The In Between') built on Dec 1 2013 17:55:00
Writing library : libebml v1.3.0 + libmatroska v1.4.1

Video
ID : 1
Format : AVC
Format/Info : Advanced Video Codec
Format profile : High@L3
Format settings : CABAC / 4 Ref Frames
Format settings, CABAC : Yes
Format settings, RefFrames : 4 frames
Codec ID : V_MPEG4/ISO/AVC
Duration : 1 h 11 min
Bit rate : 1 900 kb/s
Width : 720 pixels
Height : 576 pixels
Display aspect ratio : 4:3
Frame rate mode : Constant
Frame rate : 25.000 FPS
Standard : PAL
Color space : YUV
Chroma subsampling : 4:2:0
Bit depth : 8 bits
Scan type : Progressive
Bits/(Pixel*Frame) : 0.183
Stream size : 959 MiB (79%)
Writing library : x264 core 144 r2533 c8a773e
Encoding settings : cabac=1 / ref=4 / deblock=1:0:0 / analyse=0x3:0x113 / me=umh / subme=8 / psy=1 / psy_rd=1.00:0.00 / mixed_ref=1 / me_range=24 / chroma_me=1 / trellis=1 / 8x8dct=1 / cqm=0 / deadzone=21,11 / fast_pskip=1 / chroma_qp_offset=-2 / threads=3 / lookahead_threads=1 / sliced_threads=0 / nr=0 / decimate=1 / interlaced=0 / bluray_compat=0 / constrained_intra=0 / bframes=3 / b_pyramid=0 / b_adapt=2 / b_bias=0 / direct=3 / weightb=1 / open_gop=0 / weightp=2 / keyint=250 / keyint_min=25 / scenecut=40 / intra_refresh=0 / rc_lookahead=40 / rc=abr / mbtree=1 / bitrate=1900 / ratetol=1.0 / qcomp=0.60 / qpmin=10 / qpmax=51 / qpstep=4 / ip_ratio=1.41 / aq=1:1.00
Language : English
Default : Yes
Forced : No

Audio
ID : 2
Format : AC-3
Format/Info : Audio Coding 3
Format settings, Endianness : Big
Codec ID : A_AC3
Duration : 1 h 11 min
Bit rate mode : Constant
Bit rate : 448 kb/s
Channel(s) : 6 channels
Channel positions : Front: L C R, Side: L R, LFE
Sampling rate : 48.0 kHz
Frame rate : 31.250 FPS (1536 SPF)
Bit depth : 16 bits
Compression mode : Lossy
Delay relative to video : -40 ms
Stream size : 229 MiB (19%)
Language : Russian
Service kind : Complete Main
Default : Yes
Forced : No

Text #1
ID : 3
Format : VobSub
Muxing mode : zlib
Codec ID : S_VOBSUB
Codec ID/Info : Picture based subtitle format used on DVDs
Language : English
Default : Yes
Forced : No

Text #2
ID : 4
Format : VobSub
Muxing mode : zlib
Codec ID : S_VOBSUB
Codec ID/Info : Picture based subtitle format used on DVDs
Language : Russian
Default : No
Forced : No

Menu
00:00:00.080 : en:Chapter 01
00:07:58.880 : en:Chapter 02
00:13:19.400 : en:Chapter 03
00:19:25.760 : en:Chapter 04
00:24:03.560 : en:Chapter 05
00:27:34.880 : en:Chapter 06
00:30:16.520 : en:Chapter 07
00:35:01.880 : en:Chapter 08
00:40:22.640 : en:Chapter 09
00:42:48.920 : en:Chapter 10
00:50:51.320 : en:Chapter 11
00:59:30.320 : en:Chapter 12
01:08:40.160 : en:Chapter 13




Screenshots (click to enlarge to original size):

Great Coffee Cakes, Sticky Buns, Muffins & More: 200 Anytime Treats and Special Sweets for Morning to Midnight

Great Coffee Cakes, Sticky Buns, Muffins & More: 200 Anytime Treats and Special Sweets for Morning to Midnight

Great Coffee Cakes, Sticky Buns, Muffins & More: 200 Anytime Treats and Special Sweets for Morning to Midnight


Great Coffee Cakes, Sticky Buns, Muffins & More: 200 Anytime Treats and Special Sweets for Morning to Midnight



–––––––––––––––––––––––––––––––––––––––-
>>> "Sherlock Holmes" <<< OR >>> "Other Russian and Soviet movies" <<<
–––––––––––––––––––––––––––––––––––––––-
>>> Visit Blog RSU75 Here <<<
–––––––––––––––––––––––––––––––––––––––-