Shofuso Japanese House and Garden (2014)

Posted By: notbanned
1080p (FullHD) / HDTV
Shofuso Japanese House and Garden (2014)

Shofuso Japanese House and Garden (2014)
HDTV | 1920x1080 | .MP4/AVC @ 3186 Kbps | 32 min 43 s | 791 MiB
Audio: English AAC 192 kbps, 2 channels | Subs: English
Genre: Documentary

Shofuso Japanese House and Garden in Philadelphia's Fairmount Park is the physical embodiment of the long-time friendship between Japan and the people of Philadelphia. This compelling and informative documentary explores the traditional-style Japanese house and nationally ranked garden, including areas not open to the general public. Frank Chance, professor of East Asian Studies at the University of Pennsylvania, and Kim Andrews, Shofuso Executive Director, explain Shofuso's features, history, and how it reflects the culture and philosophy of Japan. Tea practitioner Morgan Beard guides us through a traditional Japanese Tea Ceremony.

General
Complete name : Shofuso.Japanese.House.and.Garden.1080p.mp4
Format : MPEG-4
Format profile : Base Media
Codec ID : isom (isom)
File size : 791 MiB
Duration : 32 min 43 s
Overall bit rate mode : Variable
Overall bit rate : 3 380 kb/s

Video
ID : 1
Format : AVC
Format/Info : Advanced Video Codec
Format profile : High@L4
Format settings, CABAC : Yes
Format settings, ReFrames : 3 frames
Codec ID : avc1
Codec ID/Info : Advanced Video Coding
Duration : 32 min 43 s
Source duration : 32 min 43 s
Bit rate : 3 186 kb/s
Maximum bit rate : 8 939 kb/s
Width : 1 920 pixels
Height : 1 080 pixels
Display aspect ratio : 16:9
Frame rate mode : Variable
Frame rate : 23.976 (24000/1001) FPS
Minimum frame rate : 23.974 FPS
Maximum frame rate : 23.981 FPS
Color space : YUV
Chroma subsampling : 4:2:0
Bit depth : 8 bits
Scan type : Progressive
Bits/(Pixel*Frame) : 0.064
Stream size : 746 MiB (94%)
Source stream size : 746 MiB (94%)

Audio
ID : 2
Format : AAC
Format/Info : Advanced Audio Codec
Format profile : LC
Codec ID : 40
Duration : 32 min 43 s
Bit rate mode : Variable
Bit rate : 192 kb/s
Maximum bit rate : 211 kb/s
Channel(s) : 2 channels
Channel positions : Front: L R
Sampling rate : 48.0 kHz
Frame rate : 46.875 FPS (1024 spf)
Compression mode : Lossy
Stream size : 44.8 MiB (6%)
Encoded date : UTC 2018-04-21 21:08:45
Tagged date : UTC 2018-04-21 21:08:49

Text
ID : 3
Format : Timed Text
Codec ID : tx3g
Duration : 32 min 40 s
Bit rate mode : Variable
Bit rate : 96 b/s
Stream size : 23.0 KiB (0%)
Forced : No
Encoded date : UTC 2018-04-21 21:08:49
Tagged date : UTC 2018-04-21 21:08:49


Screenshots:

Shofuso Japanese House and Garden (2014)

Shofuso Japanese House and Garden (2014)

Shofuso Japanese House and Garden (2014)

Shofuso Japanese House and Garden (2014)