Tags
Language
Tags

Sibel (2018)

Posted By: RSU75
SD / DVD IMDb
Sibel (2018)

Sibel (2018)
DVD Video | 1hr 31mn | PAL 16:9 | 720x576 | 7.39 Gb
DVDRip | MKV | AVC 720x428, ~ 1.6 Mbps | 1hr 31mn | 1.43 GB
Turkish (Türkçe): AC3, 6 ch, 448 kbps \ AC3, 2 ch, 192 kbps
Subtitles: English, Turkish, Francais
Genre: Drama, Thriller



Director: Guillaume Giovanetti, Çagla Zencirci
Writers: Guillaume Giovanetti, Ramata Sy
Stars: Damla Sönmez, Erkan Kolçak Köstendil, Emin Gürsoy

25-year-old Sibel lives with her father and sister in a secluded village in the mountains of Turkey's Black Sea region. Sibel is a mute, but she communicates by using the ancestral whistled language of the area. Rejected by her fellow villagers, she relentlessly hunts down a wolf that is said to be prowling in the neighbouring forest, sparking off fears and fantasies among the village women. There she crosses path with a fugitive. Injured, threatening and vulnerable, he is the first one to take a fresh look at her.

DVD Distributor: Pyramide Films

Extras:
- Interviews
- Deleted Scenes
- Scene Analyses




Title: Sibel.2018.D9
Size: 7.39 Gb ( 7 746 352,00 KBytes ) - DVD-9
Enabled regions: 1, 2, 3, 4, 5, 6, 7, 8

VTS_01 :
Play Length: 01:31:40
Video: PAL 16:9 (720x576) VBR, Auto Letterboxed
Audio:
Turkish (Dolby AC3, 6 ch)
Turkish (Dolby AC3, 2 ch)
Subtitles:
Francais
Francais
English
Turkish

VTS_02 :
Play Length: 00:27:05+00:01:48+00:01:56+00:02:32+00:02:16+00:03:27
Video: PAL 16:9 (720x576) VBR, Auto Letterboxed
Audio:
Francais (Dolby AC3, 2 ch)

VTS_03 :
Play Length: 00:01:39+00:01:37+00:01:33+00:01:42
Video: PAL 16:9 (720x576) VBR, Auto Letterboxed
Audio:
Not specified (Dolby AC3, 2 ch)

VTS_04 :
Play Length: 00:02:26+00:01:24+00:03:14
Video: PAL 16:9 (720x576) VBR, Auto Letterboxed
Audio:
Francais (Dolby AC3, 2 ch)
Turkish (Dolby AC3, 2 ch)





General
Unique ID : 171343505845255533806592641470098423637 (0x80E78F11FF4DC019B81279CBDF59BF55)
Complete name : F:\Sibel.2018.Dr\Sibel.2018.Dr.mkv
Format : Matroska
Format version : Version 4
File size : 1.43 GiB
Duration : 1 h 31 min
Overall bit rate : 2 226 kb/s
Movie name : Release RSU75
Encoded date : UTC 2020-10-08 15:40:48
Writing application : mkvmerge v6.6.0 ('The Edge Of The In Between') built on Dec 1 2013 17:55:00
Writing library : libebml v1.3.0 + libmatroska v1.4.1

Video
ID : 1
Format : AVC
Format/Info : Advanced Video Codec
Format profile : High@L4.1
Format settings : CABAC / 4 Ref Frames
Format settings, CABAC : Yes
Format settings, Reference fra : 4 frames
Codec ID : V_MPEG4/ISO/AVC
Duration : 1 h 31 min
Bit rate : 1 600 kb/s
Width : 720 pixels
Height : 428 pixels
Display aspect ratio : 2.40:1
Frame rate mode : Constant
Frame rate : 25.000 FPS
Color space : YUV
Chroma subsampling : 4:2:0
Bit depth : 8 bits
Scan type : Progressive
Bits/(Pixel*Frame) : 0.208
Stream size : 1 011 MiB (69%)
Writing library : x264 core 148 r2643 5c65704
Encoding settings : cabac=1 / ref=4 / deblock=1:0:0 / analyse=0x3:0x113 / me=umh / subme=8 / psy=1 / psy_rd=1.00:0.00 / mixed_ref=1 / me_range=24 / chroma_me=1 / trellis=1 / 8x8dct=1 / cqm=0 / deadzone=21,11 / fast_pskip=1 / chroma_qp_offset=-2 / threads=3 / lookahead_threads=1 / sliced_threads=0 / nr=0 / decimate=1 / interlaced=0 / bluray_compat=0 / constrained_intra=0 / bframes=3 / b_pyramid=0 / b_adapt=2 / b_bias=0 / direct=3 / weightb=1 / open_gop=0 / weightp=2 / keyint=250 / keyint_min=25 / scenecut=40 / intra_refresh=0 / rc_lookahead=40 / rc=abr / mbtree=1 / bitrate=1600 / ratetol=1.0 / qcomp=0.60 / qpmin=10 / qpmax=51 / qpstep=4 / ip_ratio=1.41 / aq=1:1.00
Language : English
Default : Yes
Forced : No
Duration_Source : General_Duration

Audio #1
ID : 2
Format : AC-3
Format/Info : Audio Coding 3
Commercial name : Dolby Digital
Codec ID : A_AC3
Duration : 1 h 31 min
Bit rate mode : Constant
Bit rate : 448 kb/s
Channel(s) : 6 channels
Channel layout : L R C LFE Ls Rs
Sampling rate : 48.0 kHz
Frame rate : 31.250 FPS (1536 SPF)
Compression mode : Lossy
Stream size : 294 MiB (20%)
Title : Surround 5.1
Language : Turkish
Service kind : Complete Main
Default : Yes
Forced : No
Duration_Source : General_Duration

Audio #2
ID : 3
Format : AC-3
Format/Info : Audio Coding 3
Commercial name : Dolby Digital
Codec ID : A_AC3
Duration : 1 h 31 min
Bit rate mode : Constant
Bit rate : 192 kb/s
Channel(s) : 2 channels
Channel layout : L R
Sampling rate : 48.0 kHz
Frame rate : 31.250 FPS (1536 SPF)
Compression mode : Lossy
Stream size : 126 MiB (9%)
Title : Stereo
Language : Turkish
Service kind : Complete Main
Default : No
Forced : No
Duration_Source : General_Duration

Text #1
ID : 4
Format : VobSub
Muxing mode : zlib
Codec ID : S_VOBSUB
Codec ID/Info : Picture based subtitle format used on DVDs
Language : French
Default : No
Forced : No

Text #2
ID : 5
Format : VobSub
Muxing mode : zlib
Codec ID : S_VOBSUB
Codec ID/Info : Picture based subtitle format used on DVDs
Language : French
Default : No
Forced : No

Text #3
ID : 6
Format : VobSub
Muxing mode : zlib
Codec ID : S_VOBSUB
Codec ID/Info : Picture based subtitle format used on DVDs
Language : English
Default : Yes
Forced : No

Text #4
ID : 7
Format : VobSub
Muxing mode : zlib
Codec ID : S_VOBSUB
Codec ID/Info : Picture based subtitle format used on DVDs
Language : Turkish
Default : No
Forced : No

Menu
00:00:00.000 : en:Chapter 01
00:15:23.080 : en:Chapter 02
00:32:18.840 : en:Chapter 03
00:46:33.360 : en:Chapter 04
00:58:57.560 : en:Chapter 05
01:14:41.760 : en:Chapter 06




Screenshots DVD (click to enlarge to original size):

Sibel (2018)

Sibel (2018)

Sibel (2018)

Sibel (2018)

Sibel (2018)



Thanks to original uploader


Screenshots DVDRip (click to enlarge to original size):

Sibel (2018)





More in My Blog



If you like this release please visit my blog
In it you will find "DVD Video", "DVDRip" releases in different languages