Tags
Language
Tags

Since You Went Away (1944)

Posted By: Without
1080p (FullHD) / BDRip IMDb
Since You Went Away (1944)

Since You Went Away (1944)
BDRip 720p | MKV | 960x720 | AVC@7335 kb/s | English DTS@1509 kb/s
Subs: English | 2 channels | 2 h 56 min | 10.9 GB
BDRip 1080p | MKV | 1440x1080 | AVC@13.5 Mb/s | English DTS@1509 kb/s
Subs: English | 2 channels | 2 h 56 min | 18.6 GB
Genre: Drama, Romance, War

With her husband away to fight in World War II, a housewife struggles to care for their two daughters - and a pair of lodgers who have moved in - alone.

IMDB - Won 1 Oscar. Another 8 nominations.


General
Since.You.Went.Away.1944.720p.BluRay.x264-PSYCHD\Since.You.Went.Away.1944.720p.BluRay.x264-PSYCHD.mkv
Format : Matroska
Format version : Version 4 / Version 2
File size : 10.9 GiB
Duration : 2 h 56 min
Overall bit rate : 8 846 kb/s
Encoded date : UTC 2010-02-22 21:41:29
Writing application : no_variable_data
Writing library : no_variable_data

Video
ID : 1
Format : AVC
Format/Info : Advanced Video Codec
Format profile : High@L4.1
Format settings, CABAC : Yes
Format settings, ReFrames : 5 frames
Codec ID : V_MPEG4/ISO/AVC
Duration : 2 h 56 min
Bit rate : 7 335 kb/s
Width : 960 pixels
Height : 720 pixels
Display aspect ratio : 4:3
Frame rate mode : Constant
Frame rate : 23.976 (24000/1001) FPS
Color space : YUV
Chroma subsampling : 4:2:0
Bit depth : 8 bits
Scan type : Progressive
Bits/(Pixel*Frame) : 0.443
Stream size : 8.85 GiB (81%)
Writing library : x264 core 152 r2851 ba24899
Encoding settings : cabac=1 / ref=5 / deblock=1:-3:-3 / analyse=0x3:0x113 / me=umh / subme=8 / psy=1 / psy_rd=1.10:0.00 / mixed_ref=1 / me_range=24 / chroma_me=1 / trellis=2 / 8x8dct=1 / cqm=0 / deadzone=21,11 / fast_pskip=1 / chroma_qp_offset=-2 / threads=22 / lookahead_threads=3 / sliced_threads=0 / nr=0 / decimate=1 / interlaced=0 / bluray_compat=0 / constrained_intra=0 / bframes=3 / b_pyramid=2 / b_adapt=2 / b_bias=0 / direct=3 / weightb=1 / open_gop=0 / weightp=2 / keyint=240 / keyint_min=24 / scenecut=40 / intra_refresh=0 / rc_lookahead=50 / rc=2pass / mbtree=1 / bitrate=7335 / ratetol=1.0 / qcomp=0.60 / qpmin=0 / qpmax=69 / qpstep=4 / cplxblur=20.0 / qblur=0.5 / ip_ratio=1.40 / aq=3:0.70
Default : Yes
Forced : No
Statistics Tags Issue : no_variable_data 1970-01-01 00:00:00 / no_variable_data 2010-02-22 21:41:29
FromStats_BitRate : 7334869
FromStats_Duration : 02:56:56.064000000
FromStats_FrameCount : 254531
FromStats_StreamSize : 9733430110

Audio
ID : 2
Format : DTS
Format/Info : Digital Theater Systems
Mode : 16
Format settings, Endianness : Big
Codec ID : A_DTS
Duration : 2 h 56 min
Bit rate mode : Constant
Bit rate : 1 509 kb/s
Channel(s) : 2 channels
Channel positions : Front: L R
Sampling rate : 48.0 kHz
Frame rate : 93.750 FPS (512 spf)
Bit depth : 24 bits
Compression mode : Lossy
Stream size : 1.86 GiB (17%)
Language : English
Default : Yes
Forced : No
Statistics Tags Issue : no_variable_data 1970-01-01 00:00:00 / no_variable_data 2010-02-22 21:41:29
FromStats_BitRate : 1508999
FromStats_Duration : 02:56:56.054000000
FromStats_FrameCount : 995255
FromStats_StreamSize : 2002453060

Text
ID : 3
Format : UTF-8
Codec ID : S_TEXT/UTF8
Codec ID/Info : UTF-8 Plain Text
Language : English
Default : No
Forced : No
Statistics Tags Issue : no_variable_data 1970-01-01 00:00:00 / no_variable_data 2010-02-22 21:41:29
FromStats_BitRate : 81
FromStats_Duration : 02:47:51.729000000
FromStats_FrameCount : 2566
FromStats_StreamSize : 102965

Menu
00:00:00.000 : en:00:00:00.000
00:04:59.133 : en:00:04:59.133
00:16:37.998 : en:00:16:37.998
00:48:55.517 : en:00:48:55.517
01:03:30.850 : en:01:03:30.850
01:22:57.557 : en:01:22:57.557
01:50:51.730 : en:01:50:51.730
02:07:10.207 : en:02:07:10.207
02:24:29.454 : en:02:24:29.454
02:43:04.317 : en:02:43:04.317

General
Since.You.Went.Away.1944.1080p.BluRay.x264-PSYCHD\Since.You.Went.Away.1944.1080p.BluRay.x264-PSYCHD.mkv
Format : Matroska
Format version : Version 4 / Version 2
File size : 18.6 GiB
Duration : 2 h 56 min
Overall bit rate : 15.0 Mb/s
Encoded date : UTC 2010-02-22 21:41:29
Writing application : no_variable_data
Writing library : no_variable_data

Video
ID : 1
Format : AVC
Format/Info : Advanced Video Codec
Format profile : High@L4.1
Format settings, CABAC : Yes
Format settings, ReFrames : 5 frames
Codec ID : V_MPEG4/ISO/AVC
Duration : 2 h 56 min
Bit rate : 13.5 Mb/s
Width : 1 440 pixels
Height : 1 080 pixels
Display aspect ratio : 4:3
Frame rate mode : Constant
Frame rate : 23.976 (24000/1001) FPS
Color space : YUV
Chroma subsampling : 4:2:0
Bit depth : 8 bits
Scan type : Progressive
Bits/(Pixel*Frame) : 0.363
Stream size : 16.4 GiB (88%)
Writing library : x264 core 152 r2851 ba24899
Encoding settings : cabac=1 / ref=5 / deblock=1:-3:-3 / analyse=0x3:0x113 / me=umh / subme=8 / psy=1 / psy_rd=1.10:0.00 / mixed_ref=1 / me_range=32 / chroma_me=1 / trellis=2 / 8x8dct=1 / cqm=0 / deadzone=21,11 / fast_pskip=1 / chroma_qp_offset=-2 / threads=24 / lookahead_threads=4 / sliced_threads=0 / nr=0 / decimate=1 / interlaced=0 / bluray_compat=0 / constrained_intra=0 / bframes=3 / b_pyramid=2 / b_adapt=2 / b_bias=0 / direct=3 / weightb=1 / open_gop=0 / weightp=2 / keyint=240 / keyint_min=24 / scenecut=40 / intra_refresh=0 / rc_lookahead=50 / rc=2pass / mbtree=1 / bitrate=13530 / ratetol=1.0 / qcomp=0.60 / qpmin=0 / qpmax=69 / qpstep=4 / cplxblur=20.0 / qblur=0.5 / ip_ratio=1.40 / aq=3:0.70
Default : Yes
Forced : No
Statistics Tags Issue : no_variable_data 1970-01-01 00:00:00 / no_variable_data 2010-02-22 21:41:29
FromStats_BitRate : 13530074
FromStats_Duration : 02:56:56.064000000
FromStats_FrameCount : 254531
FromStats_StreamSize : 17954516697

Audio
ID : 2
Format : DTS
Format/Info : Digital Theater Systems
Mode : 16
Format settings, Endianness : Big
Codec ID : A_DTS
Duration : 2 h 56 min
Bit rate mode : Constant
Bit rate : 1 509 kb/s
Channel(s) : 2 channels
Channel positions : Front: L R
Sampling rate : 48.0 kHz
Frame rate : 93.750 FPS (512 spf)
Bit depth : 24 bits
Compression mode : Lossy
Stream size : 1.86 GiB (10%)
Language : English
Default : Yes
Forced : No
Statistics Tags Issue : no_variable_data 1970-01-01 00:00:00 / no_variable_data 2010-02-22 21:41:29
FromStats_BitRate : 1508999
FromStats_Duration : 02:56:56.054000000
FromStats_FrameCount : 995255
FromStats_StreamSize : 2002453060

Text
ID : 3
Format : UTF-8
Codec ID : S_TEXT/UTF8
Codec ID/Info : UTF-8 Plain Text
Language : English
Default : No
Forced : No
Statistics Tags Issue : no_variable_data 1970-01-01 00:00:00 / no_variable_data 2010-02-22 21:41:29
FromStats_BitRate : 81
FromStats_Duration : 02:47:51.729000000
FromStats_FrameCount : 2566
FromStats_StreamSize : 102965

Menu
00:00:00.000 : en:00:00:00.000
00:04:59.133 : en:00:04:59.133
00:16:37.998 : en:00:16:37.998
00:48:55.517 : en:00:48:55.517
01:03:30.850 : en:01:03:30.850
01:22:57.557 : en:01:22:57.557
01:50:51.730 : en:01:50:51.730
02:07:10.207 : en:02:07:10.207
02:24:29.454 : en:02:24:29.454
02:43:04.317 : en:02:43:04.317


BDRip 720p Screenshots

Since You Went Away (1944)

Since You Went Away (1944)

Since You Went Away (1944)


BDRip 1080p Screenshots

Since You Went Away (1944)

Since You Went Away (1944)

Since You Went Away (1944)


Come Visit My Blog (•‿•)