Subcategories

Sirius (2013)

Posted By: Without
Sirius (2013)

Sirius (2013)
WEB-DL 720p | MKV | 1280x714 | AVC@4141 kb/s | English AC3@384 kb/s
Subs: English | 6 channels | 1 h 56 min | 3.68 GB
Genre: Documentary

A documentary about the life of Dr. Stephen Greer and his claims of existing energy technologies that would change the world as we know it.



General
Sirius.2013.720p.WEB-DL.DD5.1.H.264-CtrlHD\Sirius.2013.720p.WEB-DL.DD5.1.H.264-CtrlHD.mkv
Format : Matroska
Format version : Version 4 / Version 2
File size : 3.68 GiB
Duration : 1 h 56 min
Overall bit rate : 4 527 kb/s
Encoded date : UTC 2015-08-13 16:10:39
Writing application : mkvmerge v8.2.0 ('World of Adventure') 64bit
Writing library : libebml v1.3.1 + libmatroska v1.4.2

Video
ID : 1
Format : AVC
Format/Info : Advanced Video Codec
Format profile : High@L3.1
Format settings, CABAC : No
Format settings, ReFrames : 2 frames
Format settings, GOP : N=1
Codec ID : V_MPEG4/ISO/AVC
Duration : 1 h 56 min
Bit rate : 4 141 kb/s
Width : 1 280 pixels
Height : 714 pixels
Display aspect ratio : 16:9
Frame rate mode : Constant
Frame rate : 23.976 (23976/1000) FPS
Color space : YUV
Chroma subsampling : 4:2:0
Bit depth : 8 bits
Scan type : Progressive
Bits/(Pixel*Frame) : 0.189
Stream size : 3.36 GiB (91%)
Language : English
Default : Yes
Forced : No
Color range : Limited
Color primaries : BT.709
Transfer characteristics : BT.709
Matrix coefficients : BT.709

Audio
ID : 2
Format : AC-3
Format/Info : Audio Coding 3
Mode extension : CM (complete main)
Format settings, Endianness : Big
Codec ID : A_AC3
Duration : 1 h 56 min
Bit rate mode : Constant
Bit rate : 384 kb/s
Channel(s) : 6 channels
Channel positions : Front: L C R, Side: L R, LFE
Sampling rate : 48.0 kHz
Frame rate : 31.250 FPS (1536 spf)
Bit depth : 16 bits
Compression mode : Lossy
Stream size : 319 MiB (8%)
Language : English
Default : Yes
Forced : No

Text
ID : 3
Format : UTF-8
Codec ID : S_TEXT/UTF8
Codec ID/Info : UTF-8 Plain Text
Duration : 1 h 47 min
Bit rate : 96 b/s
Count of elements : 2011
Stream size : 76.2 KiB (0%)
Title : CC
Language : English
Default : No
Forced : No

Menu
00:00:00.000 : en:Chapter 1
00:12:04.000 : en:Chapter 2
00:24:25.000 : en:Chapter 3
00:38:49.000 : en:Chapter 4
00:53:54.000 : en:Chapter 5
01:07:55.000 : en:Chapter 6
01:17:52.000 : en:Chapter 7
01:33:10.000 : en:Chapter 8
01:38:16.000 : en:Chapter 9
01:51:02.000 : en:Chapter 10


WEB-DL 720p Screenshots

Sirius (2013)

Sirius (2013)

Sirius (2013)

Sirius (2013)

Sirius (2013)

Sirius (2013)


Come Visit My Blog (•‿•)