Sommarnattens leende / Smiles of a Summer Night (1955) [Criterion Collection]

Posted By: RSU75
SD / DVDRip IMDb
Sommarnattens leende / Smiles of a Summer Night (1955) [Criterion Collection]

Sommarnattens leende / Smiles of a Summer Night (1955) [Criterion Collection, Spine #237]
DVDRip | MKV | AVC 720x480, ~ 1.7 Mbps | 1hr 49mn | 1.45 GB
Swedish: Dolby AC3, 1 ch, 192 kbps
Subtitles: English
Genre: Comedy, Romance
IMDB Rating: 7.9/10 (10.049 votes)
Criterion.com


Director: Ingmar Bergman
Writers: Ingmar Bergman
Stars: Ulla Jacobsson, Eva Dahlbeck, Harriet Andersson

It's late nineteenth century Sweden. Middle aged lawyer Fredrik Egerman and his nineteen year old current wife Anne Egerman's two-year marriage has not yet been consummated. Fredrik wants to give Anne as much time as she needs to feel comfortable before losing her virginity. Although she loved Fredrik when they got married, Anne realizes she is attracted to Fredrik's adult son, Henrik Egerman, a brooding seminary student who is home following his most recent exams. Also a virgin, Henrik has been in an awkward flirtation with the Egermans' sexually experienced maid, Petra, in an effort to lose his virginity. When she first sees actress Desirée Armfeldt, Anne, without Fredrik telling her, knows that Desirée and Fredrik used to be lovers, the two who still have feelings for each other. Desirée currently is having an affair with married Count Carl-Magnus Malcolm. While he is jealous of any man who Desirée shows any attention to such as Fredrik, he is not the same with his young wife, the …




General
Unique ID : 240672262129221563823079688968147072492 (0xB50FCAA9099C5678A0C6C13BE04875EC)
Complete name : M:\SmilesOfASummerNight.55.Cr.Dr\SmilesOfASummerNight.55.Cr.Dr.mkv
Format : Matroska
Format version : Version 4 / Version 2
File size : 1.45 GiB
Duration : 1 h 49 min
Overall bit rate : 1 896 kb/s
Movie name : Release RSU75
Encoded date : UTC 2018-05-11 08:42:05
Writing application : mkvmerge v6.6.0 ('The Edge Of The In Between') built on Dec 1 2013 17:55:00
Writing library : libebml v1.3.0 + libmatroska v1.4.1

Video
ID : 1
Format : AVC
Format/Info : Advanced Video Codec
Format profile : High@L3
Format settings : CABAC / 4 Ref Frames
Format settings, CABAC : Yes
Format settings, RefFrames : 4 frames
Codec ID : V_MPEG4/ISO/AVC
Duration : 1 h 49 min
Bit rate : 1 700 kb/s
Width : 720 pixels
Height : 480 pixels
Display aspect ratio : 4:3
Frame rate mode : Constant
Frame rate : 24.000 FPS
Color space : YUV
Chroma subsampling : 4:2:0
Bit depth : 8 bits
Scan type : Progressive
Bits/(Pixel*Frame) : 0.205
Stream size : 1.27 GiB (88%)
Writing library : x264 core 144 r2533 c8a773e
Encoding settings : cabac=1 / ref=4 / deblock=1:0:0 / analyse=0x3:0x113 / me=umh / subme=8 / psy=1 / psy_rd=1.00:0.00 / mixed_ref=1 / me_range=24 / chroma_me=1 / trellis=1 / 8x8dct=1 / cqm=0 / deadzone=21,11 / fast_pskip=1 / chroma_qp_offset=-2 / threads=3 / lookahead_threads=1 / sliced_threads=0 / nr=0 / decimate=1 / interlaced=0 / bluray_compat=0 / constrained_intra=0 / bframes=3 / b_pyramid=0 / b_adapt=2 / b_bias=0 / direct=3 / weightb=1 / open_gop=0 / weightp=2 / keyint=250 / keyint_min=25 / scenecut=40 / intra_refresh=0 / rc_lookahead=40 / rc=abr / mbtree=1 / bitrate=1700 / ratetol=1.0 / qcomp=0.60 / qpmin=10 / qpmax=51 / qpstep=4 / ip_ratio=1.41 / aq=1:1.00
Language : English
Default : Yes
Forced : No

Audio
ID : 2
Format : AC-3
Format/Info : Audio Coding 3
Format settings, Endianness : Big
Codec ID : A_AC3
Duration : 1 h 49 min
Bit rate mode : Constant
Bit rate : 192 kb/s
Channel(s) : 1 channel
Channel positions : Front: C
Sampling rate : 48.0 kHz
Frame rate : 31.250 FPS (1536 SPF)
Bit depth : 16 bits
Compression mode : Lossy
Delay relative to video : -42 ms
Stream size : 150 MiB (10%)
Language : Swedish
Service kind : Complete Main
Default : Yes
Forced : No

Text
ID : 3
Format : VobSub
Muxing mode : zlib
Codec ID : S_VOBSUB
Codec ID/Info : Picture based subtitle format used on DVDs
Language : English
Default : Yes
Forced : No

Menu
00:00:00.000 : en:Chapter 01
00:01:44.604 : en:Chapter 02
00:05:03.303 : en:Chapter 03
00:08:38.184 : en:Chapter 04
00:10:53.486 : en:Chapter 05
00:14:32.872 : en:Chapter 06
00:18:02.448 : en:Chapter 07
00:23:17.062 : en:Chapter 08
00:30:35.667 : en:Chapter 09
00:31:49.073 : en:Chapter 10
00:38:34.979 : en:Chapter 11
00:45:06.704 : en:Chapter 12
00:50:11.174 : en:Chapter 13
00:52:52.169 : en:Chapter 14
00:57:14.764 : en:Chapter 15
01:01:24.213 : en:Chapter 16
01:07:16.365 : en:Chapter 17
01:13:32.408 : en:Chapter 18
01:15:50.045 : en:Chapter 19
01:23:19.327 : en:Chapter 20
01:26:32.520 : en:Chapter 21
01:32:23.704 : en:Chapter 22
01:36:51.972 : en:Chapter 23
01:37:37.017 : en:Chapter 24
01:44:24.458 : en:Chapter 25
01:45:53.680 : en:Chapter 26
01:47:48.995 : en:Chapter 27




Screenshots (click to enlarge to original size):

Sommarnattens leende / Smiles of a Summer Night (1955) [Criterion Collection]

Sommarnattens leende / Smiles of a Summer Night (1955) [Criterion Collection]

Sommarnattens leende / Smiles of a Summer Night (1955) [Criterion Collection]


Sommarnattens leende / Smiles of a Summer Night (1955) [Criterion Collection]




–––––––––––––––––––––––––––––––––––––––-
>>> "Criterion Collection" <<<OR >>> "DVDRip" <<<OR >>> "Swedish" <<<
–––––––––––––––––––––––––––––––––––––––-
>>> Visit Blog RSU75 Here <<<
–––––––––––––––––––––––––––––––––––––––-