Subcategories

Smithsonian Channel - Aerial America: The Dakotas (2012)

Posted By: notbanned
Smithsonian Channel - Aerial America: The Dakotas (2012)

Smithsonian Channel - Aerial America: The Dakotas (2012)
HDTV | 1280x720 | .MKV/AVC @ 4000 Kbps | 51mn 0s | Audio: English AC3 448 kbps, 6 channels | Subs: None | 1.59 GiB
Genre: Documentary

Take in the soaring views above a state that inspired a future president, launched the country's first millionaire, and kept a dark, rich secret under its expansive prairies for centuries. This lofty journey over North Dakota highlights the Roughrider State's grand beauty, which healed a grieving Teddy Roosevelt and transformed him into a defender of America's wild land. Explore the state's booms and busts, from fur trade explosions to frontier battles to the thousands of oil wells that dot the land and house flaming vents that are visible from space.


General
Unique ID : 188931893350043255683161463686275628926 (0x8E22F5869C9C137EA00DBA34D4C17F7E)
Complete name : Smithsonian.Aerial.America.The.Dakotas.mkv
Format : Matroska
Format version : Version 2
File size : 1.59 GiB
Duration : 51mn 0s
Overall bit rate : 4 458 Kbps

Video
ID : 1
Format : AVC
Format/Info : Advanced Video Codec
Format profile : High@L4.1
Format settings, CABAC : Yes
Format settings, ReFrames : 8 frames
Muxing mode : Header stripping
Codec ID : V_MPEG4/ISO/AVC
Duration : 51mn 0s
Bit rate : 4 000 Kbps
Width : 1 280 pixels
Height : 720 pixels
Display aspect ratio : 16:9
Frame rate mode : Constant
Frame rate : 29.970 fps
Color space : YUV
Chroma subsampling : 4:2:0
Bit depth : 8 bits
Scan type : Progressive
Bits/(Pixel*Frame) : 0.145
Stream size : 1.40 GiB (88%)
Writing library : x264 core 129 r2245 bc13772
Encoding settings : cabac=1 / ref=8 / deblock=1:-1:-1 / analyse=0x3:0x113 / me=umh / subme=7 / psy=1 / psy_rd=1.00:0.00 / mixed_ref=0 / me_range=30 / chroma_me=1 / trellis=2 / 8x8dct=1 / cqm=0 / deadzone=21,11 / fast_pskip=0 / chroma_qp_offset=-2 / threads=6 / lookahead_threads=1 / sliced_threads=0 / nr=0 / decimate=1 / interlaced=0 / bluray_compat=0 / constrained_intra=0 / bframes=5 / b_pyramid=0 / b_adapt=2 / b_bias=0 / direct=1 / weightb=1 / open_gop=0 / weightp=2 / keyint=300 / keyint_min=29 / scenecut=40 / intra_refresh=0 / rc_lookahead=40 / rc=abr / mbtree=1 / bitrate=4000 / ratetol=15.0 / qcomp=0.60 / qpmin=10 / qpmax=51 / qpstep=4 / ip_ratio=1.40 / aq=1:1.05
Language : English
Default : Yes
Forced : No

Audio
ID : 2
Format : AC-3
Format/Info : Audio Coding 3
Mode extension : CM (complete main)
Format settings, Endianness : Big
Muxing mode : Header stripping
Codec ID : A_AC3
Duration : 51mn 0s
Bit rate mode : Constant
Bit rate : 448 Kbps
Channel(s) : 6 channels
Channel positions : Front: L C R, Side: L R, LFE
Sampling rate : 48.0 KHz
Bit depth : 16 bits
Compression mode : Lossy
Delay relative to video : 28ms
Stream size : 163 MiB (10%)
Default : Yes
Forced : No


Screenshots:

Smithsonian Channel - Aerial America: The Dakotas (2012)

Smithsonian Channel - Aerial America: The Dakotas (2012)

Smithsonian Channel - Aerial America: The Dakotas (2012)

Smithsonian Channel - Aerial America: The Dakotas (2012)