Solo (2018)

Posted By: Without
720p (HD) / BDRip IMDb
Solo (2018)

Solo (2018)
BDRip 720p | MKV | 1280x536 | AVC@7004 kb/s | Spanish AC3@640 kb/s (6 ch) | 1 h 30 min | 4.84 GB
Subs: English, Romanian
Genre: Adventure | Drama | Romance

After falling by a cliff on a desert beach, a seriously injured surfer starts a lonely fight to survive against the merciless nature.



General
Solo 2018 720p BluRay DD-EX 5.1 x264-SPEED.mkv
Format : Matroska
Format version : Version 4 / Version 2
File size : 4.84 GiB
Duration : 1 h 30 min
Overall bit rate : 7 645 kb/s
Movie name : Solo 2018 720p BluRay DD-EX 5.1 x264-SPEED
Encoded date : UTC 2019-01-12 17:29:52
Writing application : mkvmerge v28.2.0 ('The Awakening') 64-bit
Writing library : libebml v1.3.6 + libmatroska v1.4.9

Video
ID : 1
Format : AVC
Format/Info : Advanced Video Codec
Format profile : High@L4.1
Format settings, CABAC : Yes
Format settings, ReFrames : 12 frames
Codec ID : V_MPEG4/ISO/AVC
Duration : 1 h 30 min
Bit rate : 7 004 kb/s
Width : 1 280 pixels
Height : 536 pixels
Display aspect ratio : 2.40:1
Frame rate mode : Constant
Frame rate : 24.000 FPS
Color space : YUV
Chroma subsampling : 4:2:0
Bit depth : 8 bits
Scan type : Progressive
Bits/(Pixel*Frame) : 0.425
Stream size : 4.43 GiB (92%)
Writing library : x264 core 157 r2867+103 0d6443f t_mod_Custom_2 [8-bit@all X86_64]
Encoding settings : cabac=1 / ref=12 / deblock=1:-3:-3 / analyse=0x3:0x133 / me=umh / subme=10 / psy=1 / fade_compensate=0.00 / psy_rd=1.02:0.00 / mixed_ref=1 / me_range=32 / chroma_me=1 / trellis=2 / 8x8dct=1 / cqm=0 / deadzone=21,11 / fast_pskip=0 / chroma_qp_offset=-2 / threads=12 / lookahead_threads=2 / sliced_threads=0 / nr=0 / decimate=0 / interlaced=0 / bluray_compat=0 / constrained_intra=0 / fgo=0 / bframes=9 / b_pyramid=2 / b_adapt=2 / b_bias=0 / direct=3 / weightb=1 / open_gop=0 / weightp=2 / keyint=250 / keyint_min=24 / scenecut=40 / intra_refresh=0 / rc=crf / mbtree=0 / crf=16.1000 / qcomp=0.60 / qpmin=0:0:0 / qpmax=69:69:69 / qpstep=4 / ip_ratio=1.35 / pb_ratio=1.25 / aq=3:0.80 / aq-sensitivity=10.00 / aq-factor=1.00:1.00:1.00 / aq2=0 / aq3=0 / zones=3934,4021,crf=15.1/4797,4875,crf=15/10091,10122,crf=14.7/11243,11698,crf=14.7/12152,18491,crf=14.5/19406,26847,crf=14.6/56200,58484,crf=14.7/58944,59098,crf=14.7/59360,65478,crf=14.7/67038,67621,crf=14.6/77512,80211,crf=14.6/85719,88952,crf=14.4/98226,98505,crf=14.7/98713,100671,crf=14.7/109133,110070,crf=14.4/110622,112038,crf=14.8
Language : English
Default : Yes
Forced : No

Audio
ID : 2
Format : AC-3
Format/Info : Audio Coding 3
Mode extension : CM (complete main)
Format settings, Endianness : Big
Codec ID : A_AC3
Duration : 1 h 30 min
Bit rate mode : Constant
Bit rate : 640 kb/s
Channel(s) : 6 channels
Channel positions : Front: L C R, Side: L R, LFE
Sampling rate : 48.0 kHz
Frame rate : 31.250 FPS (1536 spf)
Bit depth : 16 bits
Compression mode : Lossy
Stream size : 414 MiB (8%)
Title : DD-EX 5.1@640 kbps
Language : Spanish
Default : Yes
Forced : No

Text #1
ID : 3
Format : PGS
Muxing mode : zlib
Codec ID : S_HDMV/PGS
Codec ID/Info : Picture based subtitle format used on BDs/HD-DVDs
Duration : 1 h 28 min
Bit rate : 11.6 kb/s
Count of elements : 854
Stream size : 7.38 MiB (0%)
Language : English
Default : No
Forced : No

Text #2
ID : 4
Format : UTF-8
Codec ID : S_TEXT/UTF8
Codec ID/Info : UTF-8 Plain Text
Duration : 1 h 22 min
Bit rate : 20 b/s
Count of elements : 408
Stream size : 12.4 KiB (0%)
Language : Romanian
Default : No
Forced : No

Menu
00:00:00.000 : :Chapter 1
00:08:29.458 : :Chapter 2
00:19:54.417 : :Chapter 3
00:30:49.917 : :Chapter 4
00:38:00.958 : :Chapter 5
00:47:51.917 : :Chapter 6
01:02:55.583 : :Chapter 7
01:10:27.417 : :Chapter 8



BDRip 720p Screenshots

Solo (2018)

Solo (2018)

Solo (2018)


Come Visit My Blog (•‿•)