Subcategories

Some Like It Sexy (1969)

Posted By: Rare-1
Some Like It Sexy (1969)

Some Like It Sexy (1969)
VHSRip | Lang: English | AVI | 720x480 | DivX, @ 1501 Kbps, 29.970 fps | 01:27:55 | Subs: None | 1.01 Gb
Audio: MP3, 48000 Hz, stereo, 128 Kbps
Genre: Comedy, Erotic | UK

Some like it Sexy is curiously watchable due to its rough hand held camera approach to filmmaking, endless attempts to wed nearly all the action with the title song (plus some surprising top 40 material) and many nostalgic London locales. There's even some low rent surrealism- most noteworthy is the way Peter's conquests are inter cut with scenes of meat being cut up, for some dubious un-pc symbolism. Fans of Hammer films will no doubt be aghast to find twin sisters Mary and Madeleine Collinson the stars of Twins of Evil in some fairly scandalous scenes. There's much kitsch value as well with the unavoidable mindbending LSD sequence and Winter's dedicated follower of fashion, rivaling Austin Powers in his choice of Carnaby Street fashions. The film wasn't released until two years after it was made, apparently in its original version it was not explicit enough and Winter had to shoot some crude `sexy' inserts using very obvious body doubles to ensure a sale..

IMDB 4.6/10 from 37 users

Director: Donovan Winter
Writer: Donovan Winter
Actors: Erika Bergmann, Penny Riley, Christopher Matthews, Mary Collinson
Rated: N/A
Runtime: 72 min

Former actor Donovan Winter chose the comedy genre for his directing debut in 1960, but his follow-up feature, a nudist movie entitled World Without Shame was more a sign of things to come. Winter really came into his own in the Seventies with a string of British exploitation movies for his own Donwin company of which The Deadly Females (1976) is his warped masterpiece. Some Like it Sexy, the first Donwin production was according to its creator his version of Alfie with more sex. Likewise Some Like it Sexy aka Come Back Peter tells of a womanizing Cockney (the Peter of the original title) and his mostly successful attempts to woo a succession of laughably stereotyped women, a model, a hippie chick, a black girl, a toff housewife, twins, a Swedish au pair etc. Unfortunately apart from some brief soul searching towards the end it's hardly in the same league as Alfie, today its seems more of a primitive blueprint for the likes of Confessions of a Window Cleaner, Adventures of a Taxi Driver et al. Still while it offers few plot revelations Some like it Sexy is curiously watchable due to its rough hand held camera approach to filmmaking, endless attempts to wed nearly all the action with the title song (plus some surprising top 40 material) and many nostalgic London locales. There's even some low rent surrealism- most noteworthy is the way Peter's conquests are inter cut with scenes of meat being cut up, for some dubious un-pc symbolism. Fans of Hammer films will no doubt be aghast to find twin sisters Mary and Madeleine Collinson the stars of Twins of Evil in some fairly scandalous scenes. There's much kitsch value as well with the unavoidable mindbending LSD sequence and Winter's dedicated follower of fashion, rivaling Austin Powers in his choice of Carnaby Street fashions. The film wasn't released until two years after it was made, apparently in its original version it was not explicit enough and Winter had to shoot some crude `sexy' inserts using very obvious body doubles to ensure a sale. In 1971 the film finally saw a release double billed with another sexploitation movie called All about Women (196?). As a swinging Sixties exploitation piece Some Like it Sexy isn't half bad. Still historically its less `how it all was' and more like wishful thinking (quite literally in the final black and white sequence) on the part of slimy bachelors.



Some Like It Sexy (1969)


More Screenshots:

Some Like It Sexy (1969)


General
Complete name : I:\Some Like it Sexy.avi
Format : AVI
Format/Info : Audio Video Interleave
File size : 1.01 GiB
Duration : 1h 27mn
Overall bit rate : 1 643 Kbps

Video
ID : 0
Format : MPEG-4 Visual
Format profile : Simple@L1
Format settings, BVOP : No
Format settings, QPel : No
Format settings, GMC : No warppoints
Format settings, Matrix : Default (H.263)
Codec ID : DX50
Codec ID/Hint : DivX 5
Duration : 1h 27mn
Source duration : 1h 27mn
Bit rate : 1 501 Kbps
Width : 720 pixels
Height : 480 pixels
Display aspect ratio : 4:3
Frame rate : 29.970 fps
Standard : NTSC
Color space : YUV
Chroma subsampling : 4:2:0
Bit depth : 8 bits
Scan type : Progressive
Compression mode : Lossy
Bits/(Pixel*Frame) : 0.145
Stream size : 944 MiB (91%)
Writing library : Lavc51.40.4

Audio
ID : 1
Format : MPEG Audio
Format version : Version 1
Format profile : Layer 3
Mode : Joint stereo
Mode extension : MS Stereo
Codec ID : 55
Codec ID/Hint : MP3
Duration : 1h 27mn
Bit rate mode : Constant
Bit rate : 128 Kbps
Channel(s) : 2 channels
Sampling rate : 48.0 KHz
Compression mode : Lossy
Delay relative to video : 24ms
Stream size : 80.5 MiB (8%)
Alignment : Split accross interleaves
Interleave, duration : 24 ms (0.72 video frame)




Many Thanks to Original uploader.


For More Rare Movies Check out my blog!

Download Links :

No Mirrors Please