Tags
Language
Tags

Sons of Ben (2016)

Posted By: notbanned
720p (HD) / WEBRip IMDb
Sons of Ben (2016)

Sons of Ben (2016)
WEBRip | 1280x720 | .MKV/AVC @ 3650 Kbps | 1 h 13 min | 1.93 GiB
Audio: English EAC3 128 kbps, 2 channels | Subs: English, Français, Español
Genre: Documentary | Biography | Sport

After many rumors of an MLS team arriving in Philadelphia never materializing, a small group of soccer fans took matters into their own hands and started a supporters group called the Sons of Ben to help bring a team to their hometown. They were a group without a team to root for and had a modest goal of reaching 100 members by the end of the year. Little did they know they would reach over 1,500 members in less time than that and start a movement that would not only change the soccer landscape in Philadelphia forever, but also help revive a community that had been struggling for decades.

General
Unique ID : 112573303704541796013743561549361159934 (0x54B0D46439B0E7041D7EF1F8D8E39EFE)
Complete name : Sons.of.Ben.2016.720p.mkv
Format : Matroska
Format version : Version 4 / Version 2
File size : 1.93 GiB
Duration : 1 h 13 min
Overall bit rate mode : Variable
Overall bit rate : 3 763 kb/s

Video
ID : 1
Format : AVC
Format/Info : Advanced Video Codec
Format profile : Main@L3.1
Format settings, CABAC : Yes
Format settings, ReFrames : 3 frames
Codec ID : V_MPEG4/ISO/AVC
Duration : 1 h 13 min
Bit rate mode : Variable
Bit rate : 3 650 kb/s
Maximum bit rate : 5 475 kb/s
Width : 1 280 pixels
Height : 720 pixels
Display aspect ratio : 16:9
Frame rate mode : Constant
Frame rate : 23.976 (24000/1001) FPS
Color space : YUV
Chroma subsampling : 4:2:0
Bit depth : 8 bits
Scan type : Progressive
Bits/(Pixel*Frame) : 0.165
Stream size : 1.86 GiB (97%)
Writing library : x264 core 118
Encoding settings : cabac=1 / ref=3 / deblock=1:0:0 / analyse=0x1:0x111 / me=umh / subme=10 / psy=1 / psy_rd=1.00:0.00 / mixed_ref=1 / me_range=24 / chroma_me=1 / trellis=2 / 8x8dct=0 / cqm=0 / deadzone=21,11 / fast_pskip=1 / chroma_qp_offset=-2 / threads=8 / sliced_threads=0 / nr=0 / decimate=1 / interlaced=0 / bluray_compat=0 / constrained_intra=0 / bframes=2 / b_pyramid=0 / b_adapt=2 / b_bias=0 / direct=3 / weightb=1 / open_gop=0 / weightp=2 / keyint=48 / keyint_min=25 / scenecut=0 / intra_refresh=0 / rc_lookahead=0 / rc=2pass / mbtree=1 / bitrate=3650 / ratetol=1.0 / qcomp=0.50 / qpmin=6 / qpmax=51 / qpstep=4 / cplxblur=20.0 / qblur=0.5 / vbv_maxrate=5475 / vbv_bufsize=7300 / nal_hrd=vbr / ip_ratio=1.40 / aq=1:1.00
Default : Yes
Forced : No

Audio
ID : 2
Format : E-AC-3
Format/Info : Enhanced Audio Coding 3
Format settings, Endianness : Big
Codec ID : A_EAC3
Duration : 1 h 13 min
Bit rate mode : Constant
Bit rate : 128 kb/s
Channel(s) : 2 channels
Channel positions : Front: L R
Sampling rate : 48.0 kHz
Frame rate : 187.500 FPS (256 spf)
Compression mode : Lossy
Stream size : 67.2 MiB (3%)
Title : English
Language : English
Service kind : Complete Main
Default : Yes
Forced : No

Text #1
ID : 3
Format : UTF-8
Codec ID : S_TEXT/UTF8
Codec ID/Info : UTF-8 Plain Text
Duration : 1 h 11 min
Bit rate : 106 b/s
Count of elements : 1313
Stream size : 55.9 KiB (0%)
Title : English
Language : English
Default : No
Forced : No

Text #2
ID : 4
Format : UTF-8
Codec ID : S_TEXT/UTF8
Codec ID/Info : UTF-8 Plain Text
Duration : 1 h 11 min
Bit rate : 129 b/s
Count of elements : 1222
Stream size : 68.0 KiB (0%)
Title : French
Language : French
Default : No
Forced : No

Text #3
ID : 5
Format : UTF-8
Codec ID : S_TEXT/UTF8
Codec ID/Info : UTF-8 Plain Text
Duration : 1 h 11 min
Bit rate : 111 b/s
Count of elements : 1239
Stream size : 58.2 KiB (0%)
Title : Spanish
Language : Spanish
Default : No
Forced : No


Screenshots:

Sons of Ben (2016)

Sons of Ben (2016)

Sons of Ben (2016)

Sons of Ben (2016)