Tags
Language
Tags

Soul Mate (2016)

Posted By: Tavaz
1080p (FullHD) / BDRip IMDb
Soul Mate (2016)

Soul Mate (2016)
BDRip | MKV | 1920x824 | 中文 | H264 @ 9341 kbps | AC-3 @ 640 kbps | 1 h 49 min | 7.65 GiB
Subtitles: English
Genre: Romance, Drama

30 year-old working woman Li Ansheng’s life in Shanghai is suddenly disrupted by the publication of a novel, entitled “Qiyue and Ansheng”, a chronicle of her friendship with Qi Yue during her youth. Coupled with an accidental encounter with Su Jia Ming, a past love, her long repressed memories are unleashed with the force of a tsunami. The two girls seemed destined to become friends from the moment they entered high school. Though they were inseparable and believed that their bond would last for the rest of their lives, the cruelty of youth eventually led them to separate paths. Even more shocking is the discovery of a long buried secret shared by the women – a secret that serves as an emblem of their youth and the proof of their friendship.

4e6efeb84fcb18260961b9dc662d5960.mkv (7.6 GB)



General
Complete name : ./4e6efeb84fcb18260961b9dc662d5960.mkv
Format : Matroska
Format version : Version 4 / Version 2
File size : 7.65 GiB
Duration : 1 h 49 min
Overall bit rate : 9 975 kb/s
Encoded date : UTC 2019-04-15 09:09:07
Writing application : mkvmerge v33.0.0 ('A Little Bit of Madness') 64-bit
Writing library : libebml v1.3.7 + libmatroska v1.5.0

Video
ID : 1
Format : AVC
Format/Info : Advanced Video Codec
Format profile : High@L4.1
Format settings : CABAC / 5 Ref Frames
Format settings, CABAC : Yes
Format settings, RefFrames : 5 frames
Format settings, GOP : M=4, N=12
Codec ID : V_MPEG4/ISO/AVC
Duration : 1 h 49 min
Bit rate : 9 341 kb/s
Width : 1 920 pixels
Height : 824 pixels
Display aspect ratio : 2.35:1
Frame rate mode : Constant
Frame rate : 24.000 FPS
Color space : YUV
Chroma subsampling : 4:2:0
Bit depth : 8 bits
Scan type : Progressive
Bits/(Pixel*Frame) : 0.246
Stream size : 7.15 GiB (94%)
Writing library : x264 core 157 r2969 d4099dd
Encoding settings : cabac=1 / ref=5 / deblock=1:-3:-3 / analyse=0x3:0x113 / me=umh / subme=7 / psy=1 / psy_rd=1.00:0.00 / mixed_ref=1 / me_range=16 / chroma_me=1 / trellis=1 / 8x8dct=1 / cqm=0 / deadzone=21,11 / fast_pskip=0 / chroma_qp_offset=-2 / threads=9 / lookahead_threads=1 / sliced_threads=0 / nr=0 / decimate=1 / interlaced=0 / bluray_compat=0 / constrained_intra=0 / bframes=3 / b_pyramid=2 / b_adapt=1 / b_bias=0 / direct=3 / weightb=1 / open_gop=0 / weightp=2 / keyint=240 / keyint_min=23 / scenecut=40 / intra_refresh=0 / rc_lookahead=50 / rc=2pass / mbtree=0 / bitrate=9341 / ratetol=1.0 / qcomp=0.60 / qpmin=0 / qpmax=69 / qpstep=4 / cplxblur=20.0 / qblur=0.5 / vbv_maxrate=62500 / vbv_bufsize=78125 / nal_hrd=none / filler=0 / ip_ratio=1.40 / pb_ratio=1.30 / aq=1:0.75
Default : Yes
Forced : No

Audio
ID : 2
Format : AC-3
Format/Info : Audio Coding 3
Format settings, Endianness : Big
Codec ID : A_AC3
Duration : 1 h 49 min
Bit rate mode : Constant
Bit rate : 640 kb/s
Channel(s) : 6 channels
Channel positions : Front: L C R, Side: L R, LFE
Sampling rate : 48.0 kHz
Frame rate : 31.250 FPS (1536 SPF)
Bit depth : 16 bits
Compression mode : Lossy
Stream size : 502 MiB (6%)
Language : Chinese
Service kind : Complete Main
Default : Yes
Forced : No

Text
ID : 3
Format : UTF-8
Codec ID : S_TEXT/UTF8
Codec ID/Info : UTF-8 Plain Text
Duration : 1 h 44 min
Bit rate : 39 b/s
Count of elements : 1034
Stream size : 30.4 KiB (0%)
Language : English
Default : Yes
Forced : No

Menu
00:00:00.000 : :Chapter 01
00:22:23.250 : :Chapter 02
00:41:21.250 : :Chapter 03
01:01:51.375 : :Chapter 04
01:17:11.167 : :Chapter 05
01:27:45.167 : :Chapter 06
01:46:14.167 : :Chapter 07





Soul Mate (2016)


Soul Mate (2016)


Soul Mate (2016)


Soul Mate (2016)


Soul Mate (2016)