Spun - Leben im Rausch (2002)

Posted By: Tavaz
720p (HD) / HDTV IMDb
Spun - Leben im Rausch (2002)

Spun - Leben im Rausch (2002)
WEB-DL | MKV | 1280x720 | German / English | H264 @ 4868 kbps | AC-3 @ 448 kbps | 1 h 31 min | 3.70 GiB
Genre: Comedy, Crime, Drama

Nenn es Speed. Dope. Meth. Crystal. Ice. Zip. Tweed. Egal wie Du es nennst. Egal wie Du es nimmst - geschnupft, geschluckt, geraucht, gebacken, gespritzt, geschüttelt oder gerührt. Ross jedenfalls konsumiert alles, was ihm unter die Nase kommt. Als er den durchgeknallten Drogenbaron »The Cook« kennen lernt, beginnt eine Odyssee, die jeden Ecstasy-Trip wie eine Rentnerkaffeefahrt erscheinen lässt. Wie eine Nacht in der Asservatenkammer des Rauschgiftdezernates - so ist die Geschichte von SPUN. Durchgeknallter, cooler, lustiger und zynischer als das wahre Leben, aber ebenso hart. Eine rauschhafte Achterbahnfahrt, die den Zuschauern das Mark aus den Knochen drückt.

Spun Leben im Rausch (2002) German AC3 5.1 DL DUBBED HDTV 720p.mkv (3.7 GB)



General
Unique ID : 32398524078153763156917520562465912569 (0x185FBA90838D3EFEFF49E5EA90B5B6F9)
Complete name : ./Spun Leben im Rausch (2002) German AC3 5.1 DL DUBBED HDTV 720p.mkv
Format : Matroska
Format version : Version 4 / Version 2
File size : 3.70 GiB
Duration : 1 h 31 min
Overall bit rate : 5 767 kb/s
Encoded date : UTC 2018-01-20 12:39:35
Writing application : mkvmerge v20.0.0 ('I Am The Sun') 64-bit
Writing library : libebml v1.3.5 + libmatroska v1.4.8 / Lavf57.71.100

Video
ID : 1
Format : AVC
Format/Info : Advanced Video Codec
Format profile : High@L4.1
Format settings : CABAC / 5 Ref Frames
Format settings, CABAC : Yes
Format settings, RefFrames : 5 frames
Codec ID : V_MPEG4/ISO/AVC
Duration : 1 h 31 min
Bit rate : 4 869 kb/s
Width : 1 280 pixels
Height : 720 pixels
Display aspect ratio : 16:9
Frame rate mode : Constant
Frame rate : 25.000 FPS
Color space : YUV
Chroma subsampling : 4:2:0
Bit depth : 8 bits
Scan type : Progressive
Bits/(Pixel*Frame) : 0.211
Stream size : 3.13 GiB (84%)
Default : Yes
Forced : No
Color range : Limited
Color primaries : BT.709
Transfer characteristics : BT.709
Matrix coefficients : BT.709

Audio #1
ID : 2
Format : AC-3
Format/Info : Audio Coding 3
Format settings, Endianness : Big
Codec ID : A_AC3
Duration : 1 h 31 min
Bit rate mode : Constant
Bit rate : 448 kb/s
Channel(s) : 6 channels
Channel positions : Front: L C R, Side: L R, LFE
Sampling rate : 48.0 kHz
Frame rate : 31.250 FPS (1536 SPF)
Bit depth : 16 bits
Compression mode : Lossy
Delay relative to video : -72 ms
Stream size : 295 MiB (8%)
Language : German
Service kind : Complete Main
Default : Yes
Forced : No

Audio #2
ID : 3
Format : AC-3
Format/Info : Audio Coding 3
Format settings, Endianness : Big
Codec ID : A_AC3
Duration : 1 h 31 min
Bit rate mode : Constant
Bit rate : 448 kb/s
Channel(s) : 6 channels
Channel positions : Front: L C R, Side: L R, LFE
Sampling rate : 48.0 kHz
Frame rate : 31.250 FPS (1536 SPF)
Bit depth : 16 bits
Compression mode : Lossy
Delay relative to video : -72 ms
Stream size : 295 MiB (8%)
Language : English
Service kind : Complete Main
Default : No
Forced : No





Spun - Leben im Rausch (2002)


Spun - Leben im Rausch (2002)


Spun - Leben im Rausch (2002)


Spun - Leben im Rausch (2002)


Spun - Leben im Rausch (2002)