Star Trek: Beyond (2016)

Posted By: Without
Star Trek: Beyond (2016)

Star Trek: Beyond (2016)
4K UHD Remux | MKV | 3840x2160 | HEVC@55.0 Mb/s | English Atmos / TrueHD@4367 kb/s Kbps (8 ch)
English AC3@640 Kbps (6 ch) | Subs: English, Spanish, French, Portuguese | 2 h 2 min | 51.4 GB
Genre: Action, Adventure, Sci-Fi

The U.S.S. Enterprise crew explores the furthest reaches of uncharted space, where they encounter a new ruthless enemy, who puts them, and everything the Federation stands for, to the test.

IMDB - Nominated for 1 Oscar. Another 2 wins & 26 nominations.


General
Star.Trek.Beyond.2016.UHD.BluRay.2160p.TrueHD.Atmos.7.1.HEVC.REMUX-FraMeSToR\Star.Trek.Beyond.2016.UHD.BluRay.2160p.TrueHD.Atmos.7.1.HEVC.REMUX-FraMeSToR.mkv
Format : Matroska
Format version : Version 4 / Version 2
File size : 51.5 GiB
Duration : 2 h 2 min
Overall bit rate mode : Variable
Overall bit rate : 60.2 Mb/s
Movie name : Star Trek Beyond 4K
Encoded date : UTC 2017-10-18 16:33:19
Writing application : mkvmerge v17.0.0 ('Be Ur Friend') 64-bit
Writing library : libebml v1.3.5 + libmatroska v1.4.8

Video
ID : 1
Format : HEVC
Format/Info : High Efficiency Video Coding
Format profile : Main 10@L5.1@High
Codec ID : V_MPEGH/ISO/HEVC
Duration : 2 h 2 min
Bit rate : 55.0 Mb/s
Width : 3 840 pixels
Height : 2 160 pixels
Display aspect ratio : 16:9
Frame rate mode : Constant
Frame rate : 23.976 (24000/1001) FPS
Color space : YUV
Chroma subsampling : 4:2:0 (Type 2)
Bit depth : 10 bits
Bits/(Pixel*Frame) : 0.277
Stream size : 47.0 GiB (91%)
Writing library : ATEME Titan File 3.7.6 (4.7.6.101)
Default : Yes
Forced : No
Color range : Limited
Color primaries : BT.2020
Transfer characteristics : SMPTE ST 2084
Matrix coefficients : BT.2020 non-constant
Mastering display color primaries : R: x=0.680000 y=0.320000, G: x=0.265000 y=0.690000, B: x=0.150000 y=0.060000, White point: x=0.312700 y=0.329000
Mastering display luminance : min: 0.0050 cd/m2, max: 1000.0000 cd/m2

Audio #1
ID : 2
Format : Atmos / TrueHD
Codec ID : A_TRUEHD
Duration : 2 h 2 min
Bit rate mode : Variable
Bit rate : 4 367 kb/s
Maximum bit rate : 7 641 kb/s
Channel(s) : Object Based / 8 channels
Channel positions : Object Based / Front: L C R, Side: L R, Back: L R, LFE
Sampling rate : / 48.0 kHz
Frame rate : 1 200.000 FPS (40 spf)
Compression mode : Lossless
Stream size : 3.73 GiB (7%)
Title : TrueHD Atmos 7.1
Language : English
Default : Yes
Forced : No

Audio #2
ID : 3
Format : AC-3
Format/Info : Audio Coding 3
Mode extension : CM (complete main)
Format settings, Endianness : Big
Codec ID : A_AC3
Duration : 2 h 2 min
Bit rate mode : Constant
Bit rate : 640 kb/s
Channel(s) : 6 channels
Channel positions : Front: L C R, Side: L R, LFE
Sampling rate : 48.0 kHz
Frame rate : 31.250 FPS (1536 spf)
Bit depth : 16 bits
Compression mode : Lossy
Stream size : 560 MiB (1%)
Title : AC3 5.1-EX
Language : English
Default : No
Forced : No

Text #1
ID : 4
Format : PGS
Codec ID : S_HDMV/PGS
Codec ID/Info : Picture based subtitle format used on BDs/HD-DVDs
Duration : 1 h 51 min
Bit rate : 31.8 kb/s
Count of elements : 2532
Stream size : 25.4 MiB (0%)
Title : English
Language : English
Default : No
Forced : No

Text #2
ID : 5
Format : PGS
Codec ID : S_HDMV/PGS
Codec ID/Info : Picture based subtitle format used on BDs/HD-DVDs
Duration : 1 h 51 min
Bit rate : 36.9 kb/s
Count of elements : 3054
Stream size : 29.5 MiB (0%)
Title : English (SDH)
Language : English
Default : No
Forced : No

Text #3
ID : 6
Format : PGS
Codec ID : S_HDMV/PGS
Codec ID/Info : Picture based subtitle format used on BDs/HD-DVDs
Duration : 1 h 54 min
Bit rate : 31.1 kb/s
Count of elements : 2910
Stream size : 25.5 MiB (0%)
Title : French
Language : French
Default : No
Forced : No

Text #4
ID : 7
Format : PGS
Codec ID : S_HDMV/PGS
Codec ID/Info : Picture based subtitle format used on BDs/HD-DVDs
Duration : 1 h 54 min
Bit rate : 29.2 kb/s
Count of elements : 2342
Stream size : 23.9 MiB (0%)
Title : Spanish (Latin American)
Language : Spanish
Default : No
Forced : No

Text #5
ID : 8
Format : PGS
Codec ID : S_HDMV/PGS
Codec ID/Info : Picture based subtitle format used on BDs/HD-DVDs
Duration : 1 h 54 min
Bit rate : 26.0 kb/s
Count of elements : 2352
Stream size : 21.3 MiB (0%)
Title : Portuguese (Brazilian)
Language : Portuguese
Default : No
Forced : No

Menu
00:00:00.000 : en:Chapter 01
00:08:26.548 : en:Chapter 02
00:16:11.637 : en:Chapter 03
00:32:38.290 : en:Chapter 04
00:42:16.367 : en:Chapter 05
00:52:22.264 : en:Chapter 06
00:59:50.629 : en:Chapter 07
01:12:05.530 : en:Chapter 08
01:22:34.449 : en:Chapter 09
01:33:00.950 : en:Chapter 10
01:40:33.319 : en:Chapter 11
01:47:38.994 : en:Chapter 12
01:52:32.663 : en:Chapter 13
01:55:41.351 : en:Chapter 14


Screenshots

Star Trek: Beyond (2016)

Star Trek: Beyond (2016)

Star Trek: Beyond (2016)


Come Visit My Blog (•‿•)