Stephen Hawking: A Brief History of Mine (2013)

Posted By: notbanned
Stephen Hawking: A Brief History of Mine (2013)

Stephen Hawking: A Brief History of Mine (2013)
PDTV | 624x352 | .AVI/XviD @ 1007 Kbps | 1 h 28 min | 725 MiB
Audio: English MP3 128 kbps, 2 channels | Subs: None
Genre: Documentary

A Brief History of Mine This new feature-length biographical film tells the extraordinary and dramatic story of the planet's most famous living scientist, told for the first time in his own words and by those closest to him. Made with unique access to his private life, this is an intimate and moving journey into Stephen Hawking's past and present.

General
Complete name : Stephen.Hawking-A.Brief.History.of.Mine.2013.PDTV.avi
Format : AVI
Format/Info : Audio Video Interleave
File size : 725 MiB
Duration : 1 h 28 min
Overall bit rate : 1 145 kb/s

Video
ID : 0
Format : MPEG-4 Visual
Format profile : Advanced Simple@L5
Format settings, BVOP : 1
Format settings, QPel : No
Format settings, GMC : No warppoints
Format settings, Matrix : Default (H.263)
Muxing mode : Packed bitstream
Codec ID : XVID
Codec ID/Hint : XviD
Duration : 1 h 28 min
Bit rate : 1 007 kb/s
Width : 624 pixels
Height : 352 pixels
Display aspect ratio : 16:9
Frame rate : 25.000 FPS
Color space : YUV
Chroma subsampling : 4:2:0
Bit depth : 8 bits
Scan type : Progressive
Compression mode : Lossy
Bits/(Pixel*Frame) : 0.183
Stream size : 638 MiB (88%)
Writing library : XviD 64

Audio
ID : 1
Format : MPEG Audio
Format version : Version 1
Format profile : Layer 3
Mode : Joint stereo
Mode extension : MS Stereo
Codec ID : 55
Codec ID/Hint : MP3
Duration : 1 h 28 min
Bit rate mode : Constant
Bit rate : 128 kb/s
Channel(s) : 2 channels
Sampling rate : 48.0 kHz
Compression mode : Lossy
Stream size : 81.1 MiB (11%)
Alignment : Aligned on interleaves
Interleave, duration : 40 ms (1.00 video frame)
Interleave, preload duration : 504 ms


Screenshots:

Stephen Hawking: A Brief History of Mine (2013)

Stephen Hawking: A Brief History of Mine (2013)

Stephen Hawking: A Brief History of Mine (2013)

Stephen Hawking: A Brief History of Mine (2013)