Rebel Media - Stories of Impact: Series 1 (2018)

Posted By: Tutorial
1080p (FullHD) / HDTV
Rebel Media - Stories of Impact: Series 1 (2018)

Rebel Media - Stories of Impact: Series 1 (2018)
HDTV | 1920 x 1080 | .MP4/AVC @ 4536 Kbps | 8x~12mn | 3.18 GB
Audio: English AAC 158 Kbps, 2 channels | Subs: English
Genre: Documentary

In this 6 part short story series , Unique human stories and critical perspectives that bring to life the “Big Questions” of life, to positively impact lives around the world.

Part 1: The Honeybee Brain
Dr. Barron is an Australian Research Council Future Fellow, and the Deputy Head of the Department of Biological Sciences at Macquarie University in Sydney. He discusses how the brains of honeybees can provide a model for studying diverse intelligence.


Part 2: A I and Morality
Can computers be given a sense of morality using AI, and what are the implications for decision making in a hospital setting?


Part 3: Whales and Aliens
Can the study of Humpback Whale communication help researchers understand communications from an alien intelligence?


Part 4: New Voice of South Africa
Young black teens in South Africa's townships are learning to be radio reporters by trying to understand the concept of "Ubuntu" and what it means to their community.


Part 5: Origins of Altruism
How does altruism begin. Is it biological? Is it taught? Researchers are trying to understand the DNA of altruism by studying toddlers.


Part 6: Animal Intelligence
Evolutionary anthropologists are probing the depths of animal intelligence like never before, revealing stunning new insights about humans too.


Part 7: Catastrophic Global Threats
Scientists at the "Centre for Existential Risk" grapple with the unprecedented number of planetary threats facing humanity, from runaway AI and cyber attacks to bioterror and nuclear war.


Part 8: The Search for Genius
The global search is on for the next Ramanujan, a poor Indian drop-out who won a coveted spot at Cambridge University in the 1920's for his extraordinary genius in mathematics.

General
Complete name : Stories.Of.Impact.Series.1.1of8.The.Honeybee.Brain.mp4
Format : MPEG-4
Format profile : Base Media
Codec ID : isom (isom)
File size : 427 MiB
Duration : 12 min 42 s
Overall bit rate mode : Variable
Overall bit rate : 4 696 kb/s
Encoded date : UTC 2019-10-06 10:34:22
Tagged date : UTC 2019-10-06 10:34:22

Video
ID : 1
Format : AVC
Format/Info : Advanced Video Codec
Format profile : High@L4.1
Format settings, CABAC : No
Format settings, ReFrames : 1 frame
Format settings, GOP : M=1, N=12
Codec ID : avc1
Codec ID/Info : Advanced Video Coding
Duration : 12 min 42 s
Bit rate : 4 536 kb/s
Maximum bit rate : 23.5 Mb/s
Width : 1 920 pixels
Height : 1 080 pixels
Display aspect ratio : 16:9
Frame rate mode : Constant
Frame rate : 24.000 FPS
Color space : YUV
Chroma subsampling : 4:2:0
Bit depth : 8 bits
Scan type : Progressive
Bits/(Pixel*Frame) : 0.091
Stream size : 412 MiB (97%)
Title : Stories Of Impact Series.1.1of8.The.Honeybee.Brain.1080p.HDTV.x264.AAC..org.mp4
Encoded date : UTC 2019-10-05 20:18:20
Tagged date : UTC 2019-10-06 10:34:31

Audio
ID : 2
Format : AAC
Format/Info : Advanced Audio Codec
Format profile : LC
Codec ID : 40
Duration : 12 min 42 s
Bit rate mode : Variable
Bit rate : 158 kb/s
Maximum bit rate : 239 kb/s
Channel(s) : 2 channels
Channel positions : Front: L R
Sampling rate : 48.0 kHz
Frame rate : 46.875 FPS (1024 spf)
Compression mode : Lossy
Stream size : 14.4 MiB (3%)
Title : Stories Of Impact Series.1.1of8.The.Honeybee.Brain.1080p.HDTV.x264.AAC..org.mp4
Encoded date : UTC 2019-10-06 10:34:29
Tagged date : UTC 2019-10-06 10:34:31

Text
ID : 3
Format : Timed Text
Codec ID : tx3g
Duration : 12 min 17 s
Bit rate mode : Variable
Bit rate : 114 b/s
Stream size : 10.2 KiB (0%)
Title : Stories Of Impact Series.1.1of8.The.Honeybee.Brain.1080p.HDTV.x264.AAC..org.srt
Forced : No
Encoded date : UTC 2019-10-06 10:34:31
Tagged date : UTC 2019-10-06 10:34:31
Screenshots

Rebel Media - Stories of Impact: Series 1 (2018)

Rebel Media - Stories of Impact: Series 1 (2018)

Welcome to my blog - daily update!

Rebel Media - Stories of Impact: Series 1 (2018)