Mais Forte que o Mundo: A História de José Aldo (2016)

Posted By: Tavaz
Mais Forte que o Mundo: A História de José Aldo (2016)

Mais Forte que o Mundo: A História de José Aldo (2016)
WEBRip | MKV | 720x404 | German | H264 @ 1245 kbps | AC-3 @ 384 kbps | 1 h 58 min | 1.35 GiB
Genre: Action, Biography, Drama, Sport

Nach einer schweren Kindheit, konfrontiert der talentierte Kämpfer José Aldo in dieser Sport-Filmbiografie auf dem Weg zum MMA-Champion seine inneren Dämonen.

General
Unique ID : 219833227982176706838949058975358932398 (0xA56256F3942E4FF8817519D35FC255AE)
Complete name : ./24.02.2017.2
Format : Matroska
Format version : Version 4 / Version 2
File size : 1.35 GiB
Duration : 1 h 58 min
Overall bit rate : 1 631 kb/s
Encoded date : UTC 2017-02-21 20:58:32
Writing application : mkvmerge v9.8.0 ('Kuglblids') 64bit
Writing library : libebml v1.3.4 + libmatroska v1.4.5
FileExtension_Invalid : mkv mk3d mka mks

Video
ID : 1
Format : AVC
Format/Info : Advanced Video Codec
Format profile : High@L3.1
Format settings : CABAC / 5 Ref Frames
Format settings, CABAC : Yes
Format settings, RefFrames : 5 frames
Codec ID : V_MPEG4/ISO/AVC
Duration : 1 h 58 min
Bit rate : 1 245 kb/s
Width : 720 pixels
Height : 404 pixels
Display aspect ratio : 16:9
Frame rate mode : Constant
Frame rate : 23.976 (24000/1001) FPS
Color space : YUV
Chroma subsampling : 4:2:0
Bit depth : 8 bits
Scan type : Progressive
Bits/(Pixel*Frame) : 0.179
Stream size : 1.03 GiB (76%)
Writing library : x264 core 148 r2744 b97ae06
Encoding settings : cabac=1 / ref=5 / deblock=1:-3:-3 / analyse=0x3:0x113 / me=umh / subme=7 / psy=1 / psy_rd=1.00:0.15 / mixed_ref=1 / me_range=16 / chroma_me=1 / trellis=2 / 8x8dct=1 / cqm=0 / deadzone=21,11 / fast_pskip=0 / chroma_qp_offset=-3 / threads=12 / lookahead_threads=2 / sliced_threads=0 / nr=0 / decimate=1 / interlaced=0 / bluray_compat=0 / constrained_intra=0 / bframes=3 / b_pyramid=2 / b_adapt=2 / b_bias=0 / direct=3 / weightb=1 / open_gop=0 / weightp=2 / keyint=240 / keyint_min=24 / scenecut=40 / intra_refresh=0 / rc_lookahead=40 / rc=crf / mbtree=1 / crf=19.0 / qcomp=0.60 / qpmin=0 / qpmax=69 / qpstep=4 / ip_ratio=1.40 / aq=1:1.00
Language : German
Default : Yes
Forced : No
Color range : Limited
Matrix coefficients : BT.709

Audio
ID : 2
Format : AC-3
Format/Info : Audio Coding 3
Format settings, Endianness : Big
Codec ID : A_AC3
Duration : 1 h 58 min
Bit rate mode : Constant
Bit rate : 384 kb/s
Channel(s) : 6 channels
Channel positions : Front: L C R, Side: L R, LFE
Sampling rate : 48.0 kHz
Frame rate : 31.250 FPS (1536 SPF)
Bit depth : 16 bits
Compression mode : Lossy
Delay relative to video : 53 ms
Stream size : 325 MiB (24%)
Language : German
Service kind : Complete Main
Default : Yes
Forced : No





Mais Forte que o Mundo: A História de José Aldo (2016)


Mais Forte que o Mundo: A História de José Aldo (2016)


Mais Forte que o Mundo: A História de José Aldo (2016)


Mais Forte que o Mundo: A História de José Aldo (2016)


Mais Forte que o Mundo: A História de José Aldo (2016)