Subcategories

Student Bodies (2015)

Posted By: NaVi7
Student Bodies (2015)

Student Bodies (2015)
BRRip | AVI / XviD, 1596 Kbps | 720x400 | 1h 31mn | 1.31 GB
English: AC3, 448 Kbps (6 ch) | Subtitles: None
Genre: Comedy

After experiencing a series of sexually related mishaps, a high school adds sexual education to its curriculum to rehabilitate the student body, and hires Laci Cox to teach it - the only catch is Laci is a virgin.

imdb

General
Complete name : Student.Bodies.2015.BRRip.XviD.AC3-RARBG.avi
Format : AVI
Format/Info : Audio Video Interleave
File size : 1.31 GiB
Duration : 1h 31mn
Overall bit rate : 2 054 Kbps
Movie name : RARBG.COM - Student.Bodies.2015.BRRip.XviD.AC3-RARBG
Writing application : Lavf56.16.102
Writing library : VirtualDub build 35491/release
Comment : RARBG.COM - Student.Bodies.2015.BRRip.XviD.AC3-RARBG

Video
ID : 0
Format : MPEG-4 Visual
Format profile : Simple@L5
Format settings, BVOP : No
Format settings, QPel : No
Format settings, GMC : No warppoints
Format settings, Matrix : Default (H.263)
Codec ID : XVID
Codec ID/Hint : XviD
Duration : 1h 31mn
Bit rate : 1 596 Kbps
Width : 720 pixels
Height : 400 pixels
Display aspect ratio : 16:9
Frame rate : 23.976 fps
Color space : YUV
Chroma subsampling : 4:2:0
Bit depth : 8 bits
Scan type : Progressive
Compression mode : Lossy
Bits/(Pixel*Frame) : 0.231
Stream size : 1.02 GiB (78%)
Writing library : Lavc56.19.100

Audio
ID : 1
Format : AC-3
Format/Info : Audio Coding 3
Mode extension : CM (complete main)
Format settings, Endianness : Big
Codec ID : 2000
Duration : 1h 31mn
Bit rate mode : Constant
Bit rate : 448 Kbps
Channel(s) : 6 channels
Channel positions : Front: L C R, Side: L R, LFE
Sampling rate : 48.0 KHz
Compression mode : Lossy
Stream size : 293 MiB (22%)
Alignment : Aligned on interleaves
Interleave, duration : 42 ms (1.00 video frame)
Interleave, preload duratio : 512 ms


screenshots:

Student Bodies (2015)

Student Bodies (2015)

Student Bodies (2015)