Summer of Dreams (2016)

Posted By: Tavaz
1080p (FullHD) / WEB-DL IMDb
Summer of Dreams (2016)

Summer of Dreams (2016)
WEB-DL | MKV | 1920x1080 | English | H264 @ 7697 kbps | E-AC-3 @ 640 kbps | 1 h 25 min | 5.10 GiB
Subtitles: English
Genre: Drama, Family, TV Movie

Debbie Taylor is a former 1980s pop star bent on making a comeback and returning to the Billboard charts. As she prepares to once again take the music industry by storm, Debbie's record label deems her irrelevant and abruptly drops her. Out of money, she leaves the fast lane of New York to move in with her sister in Youngstown, Ohio.

736f4a40db5647ca9209458e375f1966.mkv (5.1 GB)



General
Unique ID : 192397991817286739168316933413676247033 (0x90BE815FCD93A6B1B9B72D843B1FE7F9)
Complete name : ./736f4a40db5647ca9209458e375f1966.mkv
Format : Matroska
Format version : Version 4 / Version 2
File size : 5.10 GiB
Duration : 1 h 25 min
Overall bit rate mode : Variable
Overall bit rate : 8 507 kb/s
Encoded date : UTC 2018-06-06 15:39:31
Writing application : mkvmerge v9.3.1 ('Mask Machine') 64bit
Writing library : libebml v1.3.4 + libmatroska v1.4.5

Video
ID : 1
Format : AVC
Format/Info : Advanced Video Codec
Format profile : High@L4
Format settings : CABAC / 4 Ref Frames
Format settings, CABAC : Yes
Format settings, RefFrames : 4 frames
Codec ID : V_MPEG4/ISO/AVC
Duration : 1 h 25 min
Bit rate mode : Variable
Bit rate : 7 697 kb/s
Maximum bit rate : 15.0 Mb/s
Width : 1 920 pixels
Height : 1 080 pixels
Display aspect ratio : 16:9
Frame rate mode : Constant
Frame rate : 23.976 (24000/1001) FPS
Color space : YUV
Chroma subsampling : 4:2:0
Bit depth : 8 bits
Scan type : Progressive
Bits/(Pixel*Frame) : 0.155
Stream size : 4.62 GiB (90%)
Language : English
Default : Yes
Forced : No
Color range : Limited
Color primaries : BT.709
Transfer characteristics : BT.709
Matrix coefficients : BT.709

Audio
ID : 2
Format : E-AC-3
Format/Info : Enhanced Audio Coding 3
Format settings, Endianness : Big
Codec ID : A_EAC3
Duration : 1 h 25 min
Bit rate mode : Constant
Bit rate : 640 kb/s
Channel(s) : 6 channels
Channel positions : Front: L C R, Side: L R, LFE
Sampling rate : 48.0 kHz
Frame rate : 187.500 FPS (256 SPF)
Compression mode : Lossy
Stream size : 393 MiB (8%)
Language : English
Service kind : Complete Main
Default : Yes
Forced : No

Text #1
ID : 3
Format : UTF-8
Codec ID : S_TEXT/UTF8
Codec ID/Info : UTF-8 Plain Text
Language : English
Default : No
Forced : No

Text #2
ID : 4
Format : UTF-8
Codec ID : S_TEXT/UTF8
Codec ID/Info : UTF-8 Plain Text
Title : SDH
Language : English
Default : No
Forced : No





Summer of Dreams (2016)


Summer of Dreams (2016)


Summer of Dreams (2016)


Summer of Dreams (2016)


Summer of Dreams (2016)