Tags
Language
Tags

Sci Ch - Super Factories Series 1 Part 7: Rolls-Royce Super Engine (2020)

Posted By: notbanned
1080p (FullHD) / HDTV
Sci Ch - Super Factories Series 1 Part 7: Rolls-Royce Super Engine (2020)

Sci Ch - Super Factories Series 1 Part 7: Rolls-Royce Super Engine (2020)
HDTV | 1920x1080 | .MP4/AVC @ 4557 Kbps | 42 min 5 s | 1.39 GiB
Audio: English AAC 160 kbps, 2 channels | Subs: English
Genre: Documentary

Rolls-Royce is not only a legendary automotive brand, they're also one of the largest manufacturers of aircraft engines producing the revolutionary Trent XWB, one of the world's most powerful, efficient and eco-friendly jet engines.

General
Complete name : Super.Factories.Series.1.Part.7.Rolls.Royce.Super.Engine.1080p.mp4
Format : MPEG-4
Format profile : Base Media
Codec ID : isom (isom/iso2/avc1/mp41)
File size : 1.39 GiB
Duration : 42 min 5 s
Overall bit rate mode : Variable
Overall bit rate : 4 721 kb/s

Video
ID : 1
Format : AVC
Format/Info : Advanced Video Codec
Format profile : High@L4.1
Format settings, CABAC : No
Format settings, ReFrames : 1 frame
Format settings, GOP : M=1, N=12
Codec ID : avc1
Codec ID/Info : Advanced Video Coding
Duration : 42 min 5 s
Bit rate : 4 557 kb/s
Width : 1 920 pixels
Height : 1 080 pixels
Display aspect ratio : 16:9
Frame rate mode : Constant
Frame rate : 23.976 (24000/1001) FPS
Color space : YUV
Chroma subsampling : 4:2:0
Bit depth : 8 bits
Scan type : Progressive
Bits/(Pixel*Frame) : 0.092
Stream size : 1.34 GiB (97%)
Language : English
Encoded date : UTC 2020-09-21 17:46:24
Tagged date : UTC 2020-09-21 17:46:24

Audio
ID : 2
Format : AAC
Format/Info : Advanced Audio Codec
Format profile : LC
Codec ID : 40
Duration : 42 min 5 s
Bit rate mode : Variable
Bit rate : 160 kb/s
Channel(s) : 2 channels
Channel positions : Front: L R
Sampling rate : 48.0 kHz
Frame rate : 46.875 FPS (1024 spf)
Compression mode : Lossy
Stream size : 48.2 MiB (3%)
Language : English
Encoded date : UTC 2020-09-21 17:46:24
Tagged date : UTC 2020-09-21 17:46:24


Screenshots:

Sci Ch - Super Factories Series 1 Part 7: Rolls-Royce Super Engine (2020)

Sci Ch - Super Factories Series 1 Part 7: Rolls-Royce Super Engine (2020)

Sci Ch - Super Factories Series 1 Part 7: Rolls-Royce Super Engine (2020)

Sci Ch - Super Factories Series 1 Part 7: Rolls-Royce Super Engine (2020)