Subcategories

Nonami Films - TPB AFK: The Pirate Bay Away From Keyboard (2013)

Posted By: notbanned
Nonami Films - TPB AFK: The Pirate Bay Away From Keyboard (2013)

Nonami Films - TPB AFK: The Pirate Bay Away From Keyboard (2013)
HDTV | 1280x720 | .MKV/AVC @ 2923 Kbps | 1 h 22 min | 1.80 GiB
Audio: English AC3 160 kbps, 2 channels | Subs: None
Genre: Documentary

Two years in the making, TPB AFK is a documentary about three computer addicts who revolutionized the world of media distribution with their hobby homepage. How did Tiamo, a beer crazy hardware fanatic, Brokep a tree hugging eco activist and Anakata, a paranoid cyber libertarian, get the White House to threaten the Swedish government with trade sanctions? TPB AFK explores what Hollywood's most hated pirates go through on a personal level. This campaign starts exactly one month before the Court of Appeal hearings start in The Pirate Bay trial in Stockholm, Sweden. In 2009 the founders of The Pirate Bay were convicted to 1 year in jail and to pay damages of around 4 million dollars for having 'assisted in making copyrighted content available'. The precedent in the Pirate Bay case will have consequences for the future of the internet.
More info


General
Unique ID : 168348648403719580577546155723716462494 (0x7EA6C532C2870C1E037BA147C20E879E)
Complete name : TPB.AFK.The.Pirate.Bay.Away.From.Keyboard.2013.HDTV.mkv
Format : Matroska
Format version : Version 2
File size : 1.80 GiB
Duration : 1 h 22 min
Overall bit rate : 3 146 kb/s

Video
ID : 1
Format : AVC
Format/Info : Advanced Video Codec
Format profile : High@L3.1
Format settings, CABAC : No
Format settings, ReFrames : 1 frame
Format settings, GOP : M=1, N=12
Codec ID : V_MPEG4/ISO/AVC
Duration : 1 h 22 min
Bit rate : 2 923 kb/s
Width : 1 280 pixels
Height : 720 pixels
Display aspect ratio : 16:9
Frame rate mode : Constant
Frame rate : 25.000 FPS
Color space : YUV
Chroma subsampling : 4:2:0
Bit depth : 8 bits
Scan type : Progressive
Bits/(Pixel*Frame) : 0.127
Stream size : 1.68 GiB (93%)
Default : Yes
Forced : No

Audio
ID : 2
Format : AC-3
Format/Info : Audio Coding 3
Format settings, Endianness : Big
Codec ID : A_AC3
Duration : 1 h 22 min
Bit rate mode : Constant
Bit rate : 160 kb/s
Channel(s) : 2 channels
Channel positions : Front: L R
Sampling rate : 48.0 kHz
Frame rate : 31.250 FPS (1536 spf)
Bit depth : 16 bits
Compression mode : Lossy
Stream size : 94.0 MiB (5%)
Service kind : Complete Main
Default : Yes
Forced : No


Screenshots:

Nonami Films - TPB AFK: The Pirate Bay Away From Keyboard (2013)

Nonami Films - TPB AFK: The Pirate Bay Away From Keyboard (2013)

Nonami Films - TPB AFK: The Pirate Bay Away From Keyboard (2013)

Nonami Films - TPB AFK: The Pirate Bay Away From Keyboard (2013)