BBC - Tails You Win: The Science of Chance (2012)

Posted By: notbanned
BBC - Tails You Win: The Science of Chance (2012)

BBC - Tails You Win: The Science of Chance (2012)
WEBRip | 960x540 | .MKV/AVC @ 1481 Kbps | 59 min 8 s | 762 MiB
Audio: English AAC 317 kbps, 2 channels | Subs: None
Genre: Documentary

Documentary in which David Spiegelhalter uses a blend of wit and wisdom, animation, graphics and gleeful nerdery to pin down what chance is and how it works in the real world.


General
Unique ID : 225850778251523138536265708148007494838 (0xA9E947160598EE30B8A2B4517E89E4B6)
Complete name : Tails.You.Win.The.Science.of.Chance.WEB.mkv
Format : Matroska
Format version : Version 4 / Version 2
File size : 762 MiB
Duration : 59 min 8 s
Overall bit rate : 1 801 kb/s

Video
ID : 1
Format : AVC
Format/Info : Advanced Video Codec
Format profile : Main@L3.1
Format settings, CABAC : Yes
Format settings, ReFrames : 4 frames
Codec ID : V_MPEG4/ISO/AVC
Duration : 59 min 8 s
Bit rate : 1 481 kb/s
Width : 960 pixels
Height : 540 pixels
Display aspect ratio : 16:9
Frame rate mode : Constant
Frame rate : 25.000 FPS
Standard : Component
Color space : YUV
Chroma subsampling : 4:2:0
Bit depth : 8 bits
Scan type : Progressive
Bits/(Pixel*Frame) : 0.114
Stream size : 626 MiB (82%)
Default : Yes
Forced : No
Color range : Limited
Color primaries : BT.709
Transfer characteristics : BT.709
Matrix coefficients : BT.709

Audio
ID : 2
Format : AAC
Format/Info : Advanced Audio Codec
Format profile : LC
Codec ID : A_AAC
Duration : 59 min 7 s
Bit rate : 317 kb/s
Channel(s) : 2 channels
Channel positions : Front: L R
Sampling rate : 48.0 kHz
Frame rate : 46.875 FPS (1024 spf)
Compression mode : Lossy
Stream size : 134 MiB (18%)
Language : English
Default : Yes
Forced : No

Text
ID : 3
Format : UTF-8
Codec ID : S_TEXT/UTF8
Codec ID/Info : UTF-8 Plain Text
Duration : 58 min 54 s
Bit rate : 200 b/s
Count of elements : 954
Stream size : 86.4 KiB (0%)
Title : English
Default : Yes
Forced : No


Screenshots:

BBC - Tails You Win: The Science of Chance (2012)

BBC - Tails You Win: The Science of Chance (2012)

BBC - Tails You Win: The Science of Chance (2012)

BBC - Tails You Win: The Science of Chance (2012)