Channel 4 - My Tattoo Addiction: Series 2 (2013)

Posted By: vivid23
Channel 4 - My Tattoo Addiction: Series 2 (2013)

Channel 4 - My Tattoo Addiction: Series 2 (2013)
PDTV | 832x468 | MP4/x264 @ 1903 Kbps | 3x46mn | Audio: English AAC 128 kbps, 2 channels | Subs: None | 3x670 MB
Genre: Documentary

My Tattoo Addiction returns for a new three-part series, revisiting the captivating world of tattoos and exploring more of the unique stories behind every tattoo design. In the tattoo world you can either stand out or fit in. This episode meets the individuals whose tattoos make them feel whole and make a statement about the person they want to be. Unemployed father-of-six Paul's facial tattoos are his pride and joy but are also a barrier to regular work. Duncan expresses his grief at the loss of a close friend through the ink on his body, while James expresses his desire to escape from his surroundings in his tattoos. And Helen and Amy's tattoos are part of their attempt to fit in to a world that views them as outsiders. The documentary takes viewers into the lives of the people who get tattoos, exploring their motives and experiences while asking why, as a country, we're addicted to tattoos.

More info

Part 1:
This episode meets people whose body art represents their way of moving on, from Cathy, whose obsession with a certain novel helped her come to terms with a difficult past, to Lindsey, who is getting her first tattoo in her 40s to celebrate the most important person in her life, and Dave, who hopes his new tattoo will cover the scars of a failed relationship. Featuring eye-watering footage and intimate interviews, the programme takes viewers into the lives of people who get tattoos, exploring their motives and experiences while asking why, as a country, we're so addicted to tattoos.


Part 2:
Whether it's a conscious decision or a thoughtless impulse, every tattoo is a statement of someone's hopes, ambitions or state of mind. This episode meets people whose addiction to body art has had a profound effect on the way they live their lives, whether it's a manifesto or an embarrassment.


Part 3:
This episode meets people whose body art represents their way of moving on. Cathy's obsession with a certain novel helped her come to terms with a difficult past. Lindsey is getting her first tattoo in her 40s to celebrate the most important person in her life. And Dave hopes his new tattoo will cover the scars of a failed relationship.


Video
ID : 1
Format : AVC
Format/Info : Advanced Video Codec
Format profile : High@L3.0
Format settings, CABAC : No
Format settings, ReFrames : 1 frame
Codec ID : avc1
Codec ID/Info : Advanced Video Coding
Duration : 46mn 1s
Bit rate mode : Variable
Bit rate : 1 903 Kbps
Width : 832 pixels
Height : 468 pixels
Display aspect ratio : 16:9
Frame rate mode : Constant
Frame rate : 25.000 fps
Color space : YUV
Chroma subsampling : 4:2:0
Bit depth : 8 bits
Scan type : Progressive
Bits/(Pixel*Frame) : 0.195
Stream size : 626 MiB (93%)
Encoded date : UTC 2013-10-06 16:29:40
Tagged date : UTC 2013-10-06 16:29:40

Audio
ID : 2
Format : AAC
Format/Info : Advanced Audio Codec
Format version : Version 4
Format profile : LC
Codec ID : 40
Duration : 46mn 1s
Bit rate mode : Variable
Bit rate : 128 Kbps
Channel(s) : 2 channels
Channel positions : Front: L R
Sampling rate : 48.0 KHz
Compression mode : Lossy
Stream size : 42.1 MiB (6%)
Encoded date : UTC 2013-10-06 16:29:40
Tagged date : UTC 2013-10-06 16:29:40


Channel 4 - My Tattoo Addiction: Series 2 (2013)

Channel 4 - My Tattoo Addiction: Series 2 (2013)