Tags
Language
Tags

Teaching Mrs. Tingle (1999)

Posted By: king-ston
1080p (FullHD) / WEBRip IMDb
Teaching Mrs. Tingle (1999)

Teaching Mrs. Tingle (1999)
WEBRip | MKV | AVC, 13 Mbps | 1920x1080 | 23.976 fps | 9.07 GB | Runtime: 95 Min
Audio : English Ac3 640 Kbps | 6 channels | 48 KHz | Subtitle : English
Genre : Comedy | Thriller

Leigh Ann is salutatorian when she needs to be valedictorian to get her scholarship to Harvard. The only class she is worse than the leader in is history, taught by Mrs. Tingle, and the teacher hates her. When an attempt to get ahead in Mrs. Tingle's class goes awry, mayhem ensues and friendships, loyalties and trust are tested by the teacher's intricate mind-games.


Video
ID : 1
Format : AVC
Format/Info : Advanced Video Codec
Format profile : High@L4
Format settings, CABAC : Yes
Format settings, ReFrames : 4 frames
Codec ID : V_MPEG4/ISO/AVC
Duration : 1 h 35 min
Bit rate mode : Variable
Bit rate : 13.0 Mb/s
Maximum bit rate : 15.0 Mb/s
Width : 1 920 pixels
Height : 1 080 pixels
Display aspect ratio : 16:9
Frame rate mode : Constant
Frame rate : 29.970 (30000/1001) FPS
Color space : YUV
Chroma subsampling : 4:2:0
Bit depth : 8 bits
Scan type : Progressive
Bits/(Pixel*Frame) : 0.209
Stream size : 8.65 GiB (95%)
Default : Yes
Forced : No
Color range : Limited
Color primaries : BT.709
Transfer characteristics : BT.709
Matrix coefficients : BT.709

Audio
ID : 2
Format : E-AC-3
Format/Info : Enhanced Audio Coding 3
Format settings, Endianness : Big
Codec ID : A_EAC3
Duration : 1 h 35 min
Bit rate mode : Constant
Bit rate : 640 kb/s
Channel(s) : 6 channels
Channel positions : Front: L C R, Side: L R, LFE
Sampling rate : 48.0 kHz
Frame rate : 187.500 FPS (256 spf)
Compression mode : Lossy
Stream size : 436 MiB (5%)
Language : English
Service kind : Complete Main
Default : Yes
Forced : No

Text
ID : 3
Format : UTF-8
Codec ID : S_TEXT/UTF8
Codec ID/Info : UTF-8 Plain Text
Duration : 1 h 32 min
Bit rate : 62 b/s
Count of elements : 1515
Stream size : 42.7 KiB (0%)
Language : English
Default : No
Forced : No


Teaching Mrs. Tingle (1999)

Teaching Mrs. Tingle (1999)

Teaching Mrs. Tingle (1999)

Teaching Mrs. Tingle (1999)