Tags
Language
Tags

Terra Willy: Planète inconnue (2019)

Posted By: Barfin
1080p (FullHD) / BDRip IMDb
Terra Willy: Planète inconnue (2019)

Terra Willy: Planète inconnue (2019)
BDRip 1080p | MKV / AVC@3853 kb/s | 1920x808 | 1h 29mn | Deutsch (dubbed): DTS, 1509 kb/s (6 ch) | 3.36 GB
Genre: Animation | Adventure | Comedy | Sci-Fi

Nach der Zerstörung ihres Raumschiffes wird der junge Willy von seinen Eltern getrennt, mit denen er durch den Weltraum gereist ist. Seine Rettungskapsel landet auf einem wilden und unerforschten Planeten. Mit Hilfe von Buck, einem Überlebensroboter, muss er bis zur Ankunft einer Rettungsmission durchhalten. Willy, Buck and Flash, ein außerirdisches Wesen, mit dem sie sich angefreundet haben, entdecken in der Zwischenzeit den Planeten und seine außergewöhnlichen Lebewesen… aber auch seine Gefahren.


General
Unique ID : 213035577167750132931683723583023634304 (0xA04528E3FB3759FDB47A2BEBBBDA5780)
Complete name : G:\Terra.Willy.Planete.inconnue.2019.German.1080p.BluRay.x264.mkv
Format : Matroska
Format version : Version 4
File size : 3.36 GiB
Duration : 1 h 29 min
Overall bit rate : 5 364 kb/s
Encoded date : UTC 2019-12-10 07:39:04
Writing application : mkvmerge v7.8.0 ('River Man') 32bit built on Apr 3 2015 12:11:22
Writing library : libebml v1.3.1 + libmatroska v1.4.2

Video
ID : 1
Format : AVC
Format/Info : Advanced Video Codec
Format profile : High@L4.1
Format settings : CABAC / 5 Ref Frames
Format settings, CABAC : Yes
Format settings, ReFrames : 5 frames
Codec ID : V_MPEG4/ISO/AVC
Duration : 1 h 29 min
Bit rate : 3 853 kb/s
Width : 1 920 pixels
Height : 808 pixels
Display aspect ratio : 2.40:1
Frame rate mode : Constant
Frame rate : 24.000 FPS
Color space : YUV
Chroma subsampling : 4:2:0
Bit depth : 8 bits
Scan type : Progressive
Bits/(Pixel*Frame) : 0.103
Stream size : 2.41 GiB (72%)
Writing library : x264 core 158 r2988 7817004
Encoding settings : cabac=1 / ref=5 / deblock=1:-3:-3 / analyse=0x3:0x133 / me=umh / subme=8 / psy=1 / psy_rd=1.00:0.15 / mixed_ref=1 / me_range=16 / chroma_me=1 / trellis=2 / 8x8dct=1 / cqm=0 / deadzone=21,11 / fast_pskip=0 / chroma_qp_offset=-3 / threads=12 / lookahead_threads=2 / sliced_threads=0 / nr=0 / decimate=1 / interlaced=0 / bluray_compat=0 / constrained_intra=0 / bframes=3 / b_pyramid=2 / b_adapt=2 / b_bias=0 / direct=3 / weightb=1 / open_gop=0 / weightp=2 / keyint=240 / keyint_min=24 / scenecut=40 / intra_refresh=0 / rc_lookahead=50 / rc=crf / mbtree=1 / crf=20.0 / qcomp=0.60 / qpmin=0 / qpmax=69 / qpstep=4 / ip_ratio=1.40 / aq=1:1.00
Language : English
Default : Yes
Forced : No

Audio
ID : 2
Format : DTS
Format/Info : Digital Theater Systems
Codec ID : A_DTS
Duration : 1 h 29 min
Bit rate mode : Constant
Bit rate : 1 509 kb/s
Channel(s) : 6 channels
Channel layout : C L R Ls Rs LFE
Sampling rate : 48.0 kHz
Frame rate : 93.750 FPS (512 SPF)
Bit depth : 24 bits
Compression mode : Lossy
Stream size : 967 MiB (28%)
Language : German
Default : Yes
Forced : No

Menu
00:00:00.000 : en:00:00:00.000
00:07:01.083 : en:00:07:01.083
00:15:56.792 : en:00:15:56.792
00:21:24.542 : en:00:21:24.542
00:30:23.208 : en:00:30:23.208
00:38:15.208 : en:00:38:15.208
00:46:19.958 : en:00:46:19.958
00:52:59.583 : en:00:52:59.583
01:01:29.208 : en:01:01:29.208
01:09:12.542 : en:01:09:12.542
01:16:09.083 : en:01:16:09.083
01:23:40.083 : en:01:23:40.083




Screenshots

Terra Willy: Planète inconnue (2019)

Terra Willy: Planète inconnue (2019)

Terra Willy: Planète inconnue (2019)