The Galaxy Britain Built: Droids, Darth Vader And Lightsabers (2017)

Posted By: Tavaz
720p (HD) / HDTV
The Galaxy Britain Built: Droids, Darth Vader And Lightsabers (2017)

The Galaxy Britain Built: Droids, Darth Vader And Lightsabers (2017)
HDTV | MKV | 1280x548 | H264 @ 1012 kbps | AC-3 @ 192 kbps | 58 min 56 s | 518 MiB
Subtitles: English
Genre: Documentaryentary

The first BBC documentary about Star Wars for 20 years includes previously unheard stories from the people who made one of the most successful movies of all time.

09e96fc0f3014e3ab0eee277097cb86a.mkv (518.0 MB)



General
Complete name : ./09e96fc0f3014e3ab0eee277097cb86a.mkv
Format : Matroska
Format version : Version 4 / Version 2
File size : 518 MiB
Duration : 58 min 56 s
Overall bit rate : 1 229 kb/s
Writing application : Sienna Miller (Compiled on Nov 5th 2017)
Writing library : Sienna Miller

Video
ID : 1
Format : AVC
Format/Info : Advanced Video Codec
Format profile : High@L4.1
Format settings : CABAC / 5 Ref Frames
Format settings, CABAC : Yes
Format settings, RefFrames : 5 frames
Codec ID : V_MPEG4/ISO/AVC
Duration : 58 min 56 s
Bit rate : 1 012 kb/s
Width : 1 280 pixels
Height : 548 pixels
Display aspect ratio : 2.35:1
Frame rate mode : Constant
Frame rate : 25.000 FPS
Color space : YUV
Chroma subsampling : 4:2:0
Bit depth : 8 bits
Scan type : Progressive
Bits/(Pixel*Frame) : 0.058
Stream size : 427 MiB (82%)
Writing library : x264 core 152 r2851 ba24899
Encoding settings : cabac=1 / ref=5 / deblock=1:0:0 / analyse=0x3:0x113 / me=hex / subme=8 / psy=1 / psy_rd=1.00:0.00 / mixed_ref=1 / me_range=16 / chroma_me=1 / trellis=2 / 8x8dct=1 / cqm=0 / deadzone=21,11 / fast_pskip=1 / chroma_qp_offset=-2 / threads=12 / lookahead_threads=2 / sliced_threads=0 / nr=0 / decimate=1 / interlaced=0 / bluray_compat=0 / constrained_intra=0 / bframes=3 / b_pyramid=2 / b_adapt=1 / b_bias=0 / direct=3 / weightb=1 / open_gop=0 / weightp=2 / keyint=250 / keyint_min=25 / scenecut=40 / intra_refresh=0 / rc_lookahead=50 / rc=crf / mbtree=1 / crf=21.0 / qcomp=0.60 / qpmin=0 / qpmax=69 / qpstep=4 / ip_ratio=1.40 / aq=1:1.00
Default : Yes
Forced : No

Audio
ID : 2
Format : AC-3
Format/Info : Audio Coding 3
Format settings, Endianness : Big
Codec ID : A_AC3
Duration : 58 min 56 s
Bit rate mode : Constant
Bit rate : 192 kb/s
Channel(s) : 2 channels
Channel positions : Front: L R
Sampling rate : 48.0 kHz
Frame rate : 31.250 FPS (1536 SPF)
Bit depth : 16 bits
Compression mode : Lossy
Stream size : 80.9 MiB (16%)
Service kind : Complete Main
Default : Yes
Forced : No

Text
ID : 3
Format : ASS
Codec ID : S_TEXT/ASS
Codec ID/Info : Advanced Sub Station Alpha
Compression mode : Lossless
Language : English
Default : No
Forced : No





The Galaxy Britain Built: Droids, Darth Vader And Lightsabers (2017)


The Galaxy Britain Built: Droids, Darth Vader And Lightsabers (2017)


The Galaxy Britain Built: Droids, Darth Vader And Lightsabers (2017)


The Galaxy Britain Built: Droids, Darth Vader And Lightsabers (2017)