The Lotus (2018)

Posted By: Tavaz
1080p (FullHD) / WEB-DL IMDb
The Lotus (2018)

The Lotus (2018)
WEB-DL | MKV | 1920x1080 | English | H264 @ 5172 kbps | AC-3 @ 384 kbps | 1 h 22 min | 3.19 GiB
Genre: Action, Horror, Sci-Fi

In the not so distant future, biochemical technology has advanced in unexpected ways. Unfortunately, it has fallen into the hands of the wrong man. A brilliant young biochemist by the name of Jacob, who believes the world is a better place without humanity. Jacob decides to take matters into his own hands by beginning the process to wipe everyone out. Staging biochemical attacks through out the city, the virus is released, infecting millions, from a matter of seconds. The virus is fierce, causing chaos and destruction everywhere. Across the way, just minutes before the attack, a young woman, by the name of Cee is caught in the whirlwind of her sister’s wedding. As the wedding begins, the virus hits. Infecting everyone. Cee watches the attack unfold before her eyes, as dozens of loved ones perish. Waiting for the infection to take her, Cee finds herself alone in the early days of an apocalyptic world, surrounded by chaos and war. Fighting to survive as long as she can, she meets a…

267d0e0e181c42f895640a5f0a215528.mkv (3.2 GB)



General
Complete name : ./267d0e0e181c42f895640a5f0a215528.mkv
Format : Matroska
Format version : Version 4 / Version 2
File size : 3.19 GiB
Duration : 1 h 22 min
Overall bit rate : 5 558 kb/s
Encoded date : UTC 2018-03-07 18:11:32
Writing application : mkvmerge v20.0.0 ('I Am The Sun') 64-bit
Writing library : libebml v1.3.5 + libmatroska v1.4.8
Cover : Yes
Attachments : small_cover_land.jpg / cover.jpg / cover_land.jpg / small_cover.jpg

Video
ID : 1
Format : AVC
Format/Info : Advanced Video Codec
Format profile : High@L4
Format settings : CABAC / 4 Ref Frames
Format settings, CABAC : Yes
Format settings, RefFrames : 4 frames
Codec ID : V_MPEG4/ISO/AVC
Duration : 1 h 22 min
Bit rate : 5 172 kb/s
Width : 1 920 pixels
Height : 1 080 pixels
Display aspect ratio : 16:9
Frame rate mode : Constant
Frame rate : 23.976 (23976/1000) FPS
Color space : YUV
Chroma subsampling : 4:2:0
Bit depth : 8 bits
Scan type : Progressive
Bits/(Pixel*Frame) : 0.104
Stream size : 2.97 GiB (93%)
Title : The.Lotus.2018.1080p.WEB-DL.DD5.1.H264-FGT
Language : English
Default : Yes
Forced : No
Color range : Limited
Color primaries : BT.709
Transfer characteristics : BT.709
Matrix coefficients : BT.709

Audio
ID : 2
Format : AC-3
Format/Info : Audio Coding 3
Format settings, Endianness : Big
Codec ID : A_AC3
Duration : 1 h 22 min
Bit rate mode : Constant
Bit rate : 384 kb/s
Channel(s) : 6 channels
Channel positions : Front: L C R, Side: L R, LFE
Sampling rate : 48.0 kHz
Frame rate : 31.250 FPS (1536 SPF)
Bit depth : 16 bits
Compression mode : Lossy
Delay relative to video : -42 ms
Stream size : 226 MiB (7%)
Title : The.Lotus.2018.1080p.WEB-DL.DD5.1.H264-FGT
Language : English
Service kind : Complete Main
Default : Yes
Forced : No

Menu
00:00:00.000 : en:1
00:14:58.231 : en:2
00:24:16.080 : en:3
00:32:53.889 : en:4
00:46:43.134 : en:5
00:57:28.445 : en:6
01:09:20.115 : en:7
01:16:50.023 : en:8





The Lotus (2018)


The Lotus (2018)


The Lotus (2018)


The Lotus (2018)


The Lotus (2018)