The Matrix Revolutions (2003)

Posted By: Tavaz
1080p (FullHD) / BDRip IMDb
The Matrix Revolutions (2003)

The Matrix Revolutions (2003)
BDRip | MKV | 1920x1080 | English | H264 @ 5760 kbps | AC-3 @ 448 kbps | 2 h 9 min | 5.61 GiB
Subtitles: English
Genre: Action, Sci-Fi

The human city of Zion defends itself against the massive invasion of the machines as Neo fights to end the war at another front while also opposing the rogue Agent Smith.

The.Matrix.Revolutions.2003.1080p.BluRay.x264-nikt0.mkv (5.6 GB)



General
Unique ID : 124496088452894311015781530779071385651 (0x5DA9131088E9081C82CAA70A74D19033)
Complete name : ./The.Matrix.Revolutions.2003.1080p.BluRay.x264-nikt0/The.Matrix.Revolutions.2003.1080p.BluRay.x264-nikt0.mkv
Format : Matroska
Format version : Version 4 / Version 2
File size : 5.61 GiB
Duration : 2 h 9 min
Overall bit rate : 6 209 kb/s
Movie name : The.Matrix.Revolutions.2003.1080p.BluRay.x264-nikt0
Encoded date : UTC 2018-02-02 00:12:36 / UTC 2018-02-01T02:24:47Z
Writing application : mkvmerge v20.0.0 ('I Am The Sun') 64-bit
Writing library : libebml v1.3.5 + libmatroska v1.4.8 / Lavf57.7.2

Video
ID : 1
Format : AVC
Format/Info : Advanced Video Codec
Format profile : High@L4
Format settings : CABAC / 6 Ref Frames
Format settings, CABAC : Yes
Format settings, RefFrames : 6 frames
Codec ID : V_MPEG4/ISO/AVC
Duration : 2 h 9 min
Bit rate : 5 760 kb/s
Width : 1 920 pixels
Height : 1 080 pixels
Display aspect ratio : 16:9
Frame rate mode : Constant
Frame rate : 23.976 (24000/1001) FPS
Color space : YUV
Chroma subsampling : 4:2:0
Bit depth : 8 bits
Scan type : Progressive
Bits/(Pixel*Frame) : 0.116
Stream size : 5.09 GiB (91%)
Writing library : x264 core 148 r2708 86b7198
Encoding settings : cabac=1 / ref=6 / deblock=1:-3:-3 / analyse=0x3:0x133 / me=umh / subme=9 / psy=1 / psy_rd=1.00:0.25 / mixed_ref=1 / me_range=32 / chroma_me=1 / trellis=2 / 8x8dct=1 / cqm=0 / deadzone=6,6 / fast_pskip=1 / chroma_qp_offset=-4 / threads=18 / lookahead_threads=1 / sliced_threads=0 / nr=0 / decimate=1 / interlaced=0 / bluray_compat=0 / constrained_intra=0 / bframes=3 / b_pyramid=2 / b_adapt=2 / b_bias=0 / direct=3 / weightb=1 / open_gop=0 / weightp=2 / keyint=240 / keyint_min=24 / scenecut=40 / intra_refresh=0 / rc_lookahead=40 / rc=2pass / mbtree=1 / bitrate=5760 / ratetol=1.0 / qcomp=0.60 / qpmin=0 / qpmax=69 / qpstep=4 / cplxblur=20.0 / qblur=0.5 / vbv_maxrate=20000 / vbv_bufsize=25000 / nal_hrd=none / filler=0 / ip_ratio=1.40 / aq=1:1.00
Default : Yes
Forced : No
Color range : Limited
Color primaries : BT.709
Transfer characteristics : BT.709
Matrix coefficients : BT.709
Statistics Tags Issue : mkvmerge v20.0.0 ('I Am The Sun') 64-bit 2018-02-02 00:12:36 / mkvmerge v20.0.0 ('I Am The Sun') 64-bit 2018-02-02 00:12:36 / UTC 2018-02-01T02:24:47Z
FromStats_BitRate : 5758804
FromStats_Duration : 02:09:15.957000000
FromStats_FrameCount : 185957
FromStats_StreamSize : 5583130460

Audio
ID : 2
Format : AC-3
Format/Info : Audio Coding 3
Format settings, Endianness : Big
Codec ID : A_AC3
Duration : 2 h 9 min
Bit rate mode : Constant
Bit rate : 448 kb/s
Channel(s) : 6 channels
Channel positions : Front: L C R, Side: L R, LFE
Sampling rate : 48.0 kHz
Frame rate : 31.250 FPS (1536 SPF)
Bit depth : 16 bits
Compression mode : Lossy
Delay relative to video : -5 ms
Stream size : 414 MiB (7%)
Title : Surround
Language : English
Service kind : Complete Main
Default : Yes
Forced : No
Statistics Tags Issue : mkvmerge v20.0.0 ('I Am The Sun') 64-bit 2018-02-02 00:12:36 / mkvmerge v20.0.0 ('I Am The Sun') 64-bit 2018-02-02 00:12:36 / UTC 2018-02-01T02:24:47Z
FromStats_BitRate : 448000
FromStats_Duration : 02:09:15.936000000
FromStats_FrameCount : 242373
FromStats_StreamSize : 434332416

Text
ID : 3
Format : UTF-8
Codec ID : S_TEXT/UTF8
Codec ID/Info : UTF-8 Plain Text
Language : English
Default : Yes
Forced : No
Statistics Tags Issue : mkvmerge v20.0.0 ('I Am The Sun') 64-bit 2018-02-02 00:12:36 / mkvmerge v20.0.0 ('I Am The Sun') 64-bit 2018-02-02 00:12:36 / UTC 2018-02-01T02:24:47Z
FromStats_BitRate : 39
FromStats_Duration : 02:07:54.334000000
FromStats_FrameCount : 1110
FromStats_StreamSize : 38101

Menu
00:00:00.000 : :20 Hours to Go
00:03:55.402 : :Trapped
00:07:33.244 : :The Connection Matters
00:10:19.953 : :Down Here I'm God
00:14:44.384 : :Coat-Check Chaos
00:17:58.869 : :Interesting Deal
00:23:33.370 : :The End Is Coming
00:30:06.305 : :We Meet at Last
00:35:35.634 : :The Logos Found
00:39:34.330 : :Volunteers
00:42:58.910 : :I Believe in Him
00:46:43.301 : :Nothing's Changed
00:49:02.648 : :Stowaway
00:51:53.611 : :See Your Enemy
00:58:00.644 : :Give 'em Hell
01:00:19.116 : :Detected
01:02:29.746 : :Breaching the Dome
01:08:01.035 : :Storming Sentinels
01:10:29.225 : :Trying to Keep Up
01:14:33.803 : :Unfinished Business
01:18:23.407 : :Hell of a Pilot
01:23:08.984 : :Report to the Council
01:25:55.942 : :Believers
01:29:13.348 : :Glimpse of the Sky
01:31:51.673 : :Saying What Matters
01:36:51.597 : :A Truce
01:41:55.276 : :It Ends Tonight
01:44:53.162 : :Urban Splash
01:48:06.647 : :Neo's Choice
01:51:30.851 : :Inevitable and Over
01:55:05.899 : :Real Peace
01:57:31.211 : :Freedom and Sunlight
02:00:12.372 : :End Credits





The Matrix Revolutions (2003)


The Matrix Revolutions (2003)


The Matrix Revolutions (2003)


The Matrix Revolutions (2003)


The Matrix Revolutions (2003)